<?xml version="1.0" standalone="no"?>
<!DOCTYPE svg PUBLIC "-//W3C//DTD SVG 1.1//EN" "http://www.w3.org/Graphics/SVG/1.1/DTD/svg11.dtd" >
<svg>
<metadata>
Created by FontForge 20090622 at Fri Dec 23 13:43:57 2016
 By deploy user
Copyright (c) 2013 by Jonas Hecksher, Playtype&#195;&#162;&#194;&#132;&#194;&#162;, e-Types AS. All rights reserved.
</metadata>
<defs>
<font id="Nationale-Regular" horiz-adv-x="385" >
  <font-face 
    font-family="Nationale"
    font-weight="400"
    font-stretch="normal"
    units-per-em="1000"
    panose-1="2 0 5 5 4 0 0 2 0 3"
    ascent="800"
    descent="-200"
    x-height="474"
    cap-height="708"
    bbox="-205 -243 1203 983"
    underline-thickness="50"
    underline-position="-50"
    unicode-range="U+0020-U+FB04"
  />
<missing-glyph horiz-adv-x="512" 
d="M171 491h-50v-81h-38v222h89q80 0 80 -66q0 -35 -21 -55t-60 -20zM121 599v-73h48q47 0 47 38q0 35 -47 35h-48zM369 599v-189h-38v189h-70v33h176v-33h-68zM50 50h412v617h-412v-617zM0 718h512v-718h-512v718z" />
    <glyph glyph-name="f_b" unicode="fb" horiz-adv-x="935" 
d="M321 768v-62h-53q-54 0 -71.5 -29t-17.5 -99v-104h114v-60h-114v-414h-73v414h-95v60h95v129q0 49 13.5 83t37 51t47.5 24t52 7h65zM466 385q26 46 74 74t106 28q104 0 169.5 -72t65.5 -179q0 -106 -65.5 -177.5t-170.5 -71.5q-56 0 -105.5 27t-76.5 76h-2v-90h-70v756
h72v-371h3zM807 236q0 78 -47 134.5t-126 56.5q-76 0 -125.5 -57t-49.5 -134q0 -78 49.5 -133t125.5 -55q79 0 126 55.5t47 132.5z" />
    <glyph glyph-name="f_j" unicode="fj" horiz-adv-x="550" 
d="M321 768v-62h-53q-54 0 -71.5 -29t-17.5 -99v-104h114v-60h-114v-414h-73v414h-95v60h95v129q0 49 13.5 83t37 51t47.5 24t52 7h65zM462 474v-558q0 -47 -12.5 -79.5t-35.5 -48t-48.5 -22t-57.5 -6.5h-28v60h17q54 0 74 28.5t20 96.5v529h71zM426 610q-21 0 -35 14
t-14 36t14 37t35 15q22 0 36.5 -15t14.5 -37t-14.5 -36t-36.5 -14z" />
    <glyph glyph-name="f_k" unicode="fk" horiz-adv-x="804" 
d="M321 768v-62h-53q-54 0 -71.5 -29t-17.5 -99v-104h114v-60h-114v-414h-73v414h-95v60h95v129q0 49 13.5 83t37 51t47.5 24t52 7h65zM702 0l-158 252l-81 -79v-173h-72v756h72v-502h2l211 220h98l-178 -176l199 -298h-93z" />
    <glyph glyph-name="f_t" unicode="ft" horiz-adv-x="623" 
d="M321 768v-62h-53q-54 0 -71.5 -29t-17.5 -99v-104h114v-60h-114v-414h-73v414h-95v60h95v129q0 49 13.5 83t37 51t47.5 24t52 7h65zM605 0h-55q-82 0 -114.5 33t-32.5 123v258h-84v60h84v131h72v-131h127v-60h-127v-262q0 -58 22.5 -75t67.5 -17h40v-60z" />
    <glyph glyph-name="f_h" unicode="fh" horiz-adv-x="902" 
d="M321 768v-62h-53q-54 0 -71.5 -29t-17.5 -99v-104h114v-60h-114v-414h-73v414h-95v60h95v129q0 49 13.5 83t37 51t47.5 24t52 7h65zM462 383h3q19 44 65 74t104 30q94 0 138.5 -60.5t44.5 -155.5v-271h-72v270q0 67 -30 112.5t-96 45.5q-69 0 -113 -52t-44 -135v-241h-73
v756h73v-373z" />
    <glyph glyph-name="f_f" unicode="ff" horiz-adv-x="603" 
d="M321 768v-62h-53q-54 0 -71.5 -29t-17.5 -99v-104h114v-60h-114v-414h-73v414h-95v60h95v129q0 49 13.5 83t37 51t47.5 24t52 7h65zM623 768v-62h-53q-54 0 -71.5 -29t-17.5 -99v-104h114v-60h-114v-414h-73v414h-95v60h95v129q0 49 13.5 83t37 51t47.5 24t52 7h65z" />
    <glyph glyph-name="f_i" unicode="fi" horiz-adv-x="550" 
d="M321 768v-62h-53q-54 0 -71.5 -29t-17.5 -99v-104h114v-60h-114v-414h-73v414h-95v60h95v129q0 49 13.5 83t37 51t47.5 24t52 7h65zM426 610q-21 0 -35 14t-14 36t14 37t35 15q22 0 36.5 -15t14.5 -37t-14.5 -36t-36.5 -14zM462 0h-72v474h72v-474z" />
    <glyph glyph-name="f_l" unicode="fl" horiz-adv-x="551" 
d="M321 768v-62h-53q-54 0 -71.5 -29t-17.5 -99v-104h114v-60h-114v-414h-73v414h-95v60h95v129q0 49 13.5 83t37 51t47.5 24t52 7h65zM463 0h-72v756h72v-756z" />
    <glyph glyph-name="f_f_i" unicode="ffi" horiz-adv-x="852" 
d="M321 768v-62h-53q-54 0 -71.5 -29t-17.5 -99v-104h114v-60h-114v-414h-73v414h-95v60h95v129q0 49 13.5 83t37 51t47.5 24t52 7h65zM623 768v-62h-53q-54 0 -71.5 -29t-17.5 -99v-104h114v-60h-114v-414h-73v414h-95v60h95v129q0 49 13.5 83t37 51t47.5 24t52 7h65z
M727 610q-21 0 -35 14t-14 36t14 37t35 15q22 0 36.5 -15t14.5 -37t-14.5 -36t-36.5 -14zM763 0h-72v474h72v-474z" />
    <glyph glyph-name="f_f_l" unicode="ffl" horiz-adv-x="853" 
d="M321 768v-62h-53q-54 0 -71.5 -29t-17.5 -99v-104h114v-60h-114v-414h-73v414h-95v60h95v129q0 49 13.5 83t37 51t47.5 24t52 7h65zM623 768v-62h-53q-54 0 -71.5 -29t-17.5 -99v-104h114v-60h-114v-414h-73v414h-95v60h95v129q0 49 13.5 83t37 51t47.5 24t52 7h65z
M764 0h-72v756h72v-756z" />
    <glyph glyph-name="f_f_b" unicode="ffb" horiz-adv-x="1237" 
d="M321 768v-62h-53q-54 0 -71.5 -29t-17.5 -99v-104h114v-60h-114v-414h-73v414h-95v60h95v129q0 49 13.5 83t37 51t47.5 24t52 7h65zM623 768v-62h-53q-54 0 -71.5 -29t-17.5 -99v-104h114v-60h-114v-414h-73v414h-95v60h95v129q0 49 13.5 83t37 51t47.5 24t52 7h65z
M768 385q26 46 74 74t106 28q104 0 169.5 -72t65.5 -179q0 -106 -65.5 -177.5t-170.5 -71.5q-56 0 -105.5 27t-76.5 76h-2v-90h-70v756h72v-371h3zM1109 236q0 78 -47 134.5t-126 56.5q-76 0 -125.5 -57t-49.5 -134q0 -78 49.5 -133t125.5 -55q79 0 126 55.5t47 132.5z" />
    <glyph glyph-name="f_f_h" unicode="ffh" horiz-adv-x="1204" 
d="M321 768v-62h-53q-54 0 -71.5 -29t-17.5 -99v-104h114v-60h-114v-414h-73v414h-95v60h95v129q0 49 13.5 83t37 51t47.5 24t52 7h65zM623 768v-62h-53q-54 0 -71.5 -29t-17.5 -99v-104h114v-60h-114v-414h-73v414h-95v60h95v129q0 49 13.5 83t37 51t47.5 24t52 7h65z
M763 383h3q19 44 65 74t104 30q94 0 138.5 -60.5t44.5 -155.5v-271h-72v270q0 67 -30 112.5t-96 45.5q-69 0 -113 -52t-44 -135v-241h-73v756h73v-373z" />
    <glyph glyph-name="f_f_j" unicode="ffj" horiz-adv-x="852" 
d="M321 768v-62h-53q-54 0 -71.5 -29t-17.5 -99v-104h114v-60h-114v-414h-73v414h-95v60h95v129q0 49 13.5 83t37 51t47.5 24t52 7h65zM623 768v-62h-53q-54 0 -71.5 -29t-17.5 -99v-104h114v-60h-114v-414h-73v414h-95v60h95v129q0 49 13.5 83t37 51t47.5 24t52 7h65z
M763 474v-558q0 -47 -12.5 -79.5t-35.5 -48t-48.5 -22t-57.5 -6.5h-28v60h17q54 0 74 28.5t20 96.5v529h71zM727 610q-21 0 -35 14t-14 36t14 37t35 15q22 0 36.5 -15t14.5 -37t-14.5 -36t-36.5 -14z" />
    <glyph glyph-name="f_f_k" unicode="ffk" horiz-adv-x="1106" 
d="M321 768v-62h-53q-54 0 -71.5 -29t-17.5 -99v-104h114v-60h-114v-414h-73v414h-95v60h95v129q0 49 13.5 83t37 51t47.5 24t52 7h65zM623 768v-62h-53q-54 0 -71.5 -29t-17.5 -99v-104h114v-60h-114v-414h-73v414h-95v60h95v129q0 49 13.5 83t37 51t47.5 24t52 7h65z
M1003 0l-158 252l-81 -79v-173h-72v756h72v-502h2l211 220h98l-178 -176l199 -298h-93z" />
    <glyph glyph-name="t_y" unicode="ty" horiz-adv-x="803" 
d="M788 474l-219 -571q-27 -72 -61 -108t-97 -36q-32 0 -56 4l2 64q17 -4 50 -4q36 0 55.5 20.5t34.5 61.5l35 91l-197 478h81l153 -399h2l140 399h77zM303 0h-55q-83 0 -114.5 36.5t-31.5 130.5v247h-84v60h83v131h72v-131h128v-60h-128v-262q0 -58 22.5 -75t67.5 -17h40
v-60z" />
    <glyph glyph-name=".notdef" horiz-adv-x="512" 
d="M171 491h-50v-81h-38v222h89q80 0 80 -66q0 -35 -21 -55t-60 -20zM121 599v-73h48q47 0 47 38q0 35 -47 35h-48zM369 599v-189h-38v189h-70v33h176v-33h-68zM50 50h412v617h-412v-617zM0 718h512v-718h-512v718z" />
    <glyph glyph-name=".null" horiz-adv-x="0" 
 />
    <glyph glyph-name="nonmarkingreturn" horiz-adv-x="333" 
 />
    <glyph glyph-name="space" unicode=" " horiz-adv-x="250" 
 />
    <glyph glyph-name="exclam" unicode="!" horiz-adv-x="317" 
d="M158 101q23 0 38.5 -15.5t15.5 -37.5t-16 -38t-38 -16t-38 15.5t-16 37.5q0 23 16 38.5t38 15.5zM204 708l-16 -505h-60l-16 505h92z" />
    <glyph glyph-name="quotedbl" unicode="&#x22;" horiz-adv-x="417" 
d="M163 465h-64v243h64v-243zM319 465h-64v243h64v-243z" />
    <glyph glyph-name="numbersign" unicode="#" horiz-adv-x="567" 
d="M521 433h-105l-21 -157h98v-56h-105l-30 -220h-58l30 220h-135l-30 -220h-57l30 220h-101v56h108l22 157h-102v57h110l29 218h59l-31 -218h135l29 218h58l-30 -218h97v-57zM358 433h-133l-22 -157h134z" />
    <glyph glyph-name="dollar" unicode="$" horiz-adv-x="584" 
d="M304 -12v-71h-43v71q-134 5 -216 96l56 48q29 -37 74 -59t86 -23v281q-44 13 -76 27.5t-61.5 37t-44.5 56t-15 77.5q0 82 57 133t140 57v71h43v-70q123 0 195 -76l-53 -49q-52 64 -142 64v-268q37 -12 62.5 -22.5t55 -28.5t47 -38t29.5 -50t12 -67q0 -89 -59 -142
t-147 -55zM304 50q56 2 94.5 37.5t38.5 96.5q0 93 -133 135v-269zM261 404v255q-52 -5 -87.5 -38t-35.5 -88q0 -52 32.5 -81.5t90.5 -47.5z" />
    <glyph glyph-name="percent" unicode="%" horiz-adv-x="855" 
d="M386 547q0 -72 -50 -121.5t-121 -49.5t-120.5 49.5t-49.5 121.5q0 71 49.5 121t120.5 50t121 -50t50 -121zM322 547q0 45 -31.5 76.5t-75.5 31.5t-75 -31.5t-31 -76.5t31 -76.5t75 -31.5t75.5 31.5t31.5 76.5zM810 160q0 -71 -50 -121t-121 -50t-120.5 50t-49.5 121
q0 72 49.5 122t120.5 50t121 -50t50 -122zM746 160q0 45 -31.5 76.5t-75.5 31.5t-75 -31.5t-31 -76.5t31 -76t75 -31t75.5 31t31.5 76zM671 712l-435 -743l-53 27l436 743z" />
    <glyph glyph-name="ampersand" unicode="&#x26;" horiz-adv-x="717" 
d="M670 375q-51 -134 -121 -227l143 -148h-100l-91 94q-106 -109 -224 -109q-94 0 -157.5 53.5t-63.5 146.5q0 73 44 122.5t119 85.5q-85 91 -85 168t52 121t127 44q73 0 123 -43t50 -115q0 -64 -42 -108.5t-118 -82.5l173 -179q52 73 88 177h83zM280 47q91 0 175 95
l-193 204q-129 -58 -129 -159q0 -62 43.5 -101t103.5 -39zM415 565q0 44 -29 72.5t-73 28.5q-45 0 -75.5 -29.5t-30.5 -76.5q0 -63 77 -138q61 29 96 62.5t35 80.5z" />
    <glyph glyph-name="quotesingle" unicode="'" horiz-adv-x="261" 
d="M163 465h-64v243h64v-243z" />
    <glyph glyph-name="parenleft" unicode="(" horiz-adv-x="310" 
d="M46 288q0 121 37.5 237.5t103.5 207.5l53 -34q-59 -82 -93.5 -192t-34.5 -219t34.5 -219t93.5 -192l-53 -34q-66 91 -103.5 207.5t-37.5 237.5z" />
    <glyph glyph-name="parenright" unicode=")" horiz-adv-x="310" 
d="M264 288q0 -121 -37.5 -237.5t-103.5 -207.5l-54 34q60 82 94.5 192t34.5 219t-34.5 219t-94.5 192l54 34q66 -91 103.5 -207.5t37.5 -237.5z" />
    <glyph glyph-name="asterisk" unicode="*" horiz-adv-x="451" 
d="M253 566l137 45l21 -59l-138 -43l87 -119l-49 -37l-89 122l-89 -122l-49 37l87 119l-138 43l20 59l138 -45v142h62v-142z" />
    <glyph glyph-name="plus" unicode="+" horiz-adv-x="666" 
d="M365 272v-225h-63v225h-223v63h223v224h63v-224h222v-63h-222z" />
    <glyph glyph-name="comma" unicode="," horiz-adv-x="254" 
d="M52 -116q47 87 57 130q-28 19 -28 49q0 23 14 37t35 14t36 -15t15 -46q0 -36 -27.5 -94t-55.5 -101z" />
    <glyph glyph-name="hyphen" unicode="-" horiz-adv-x="314" 
d="M265 216h-216v62h216v-62z" />
    <glyph glyph-name="period" unicode="." horiz-adv-x="254" 
d="M127 -6q-22 0 -38 15.5t-16 37.5q0 23 15.5 38.5t38.5 15.5q22 0 38 -15.5t16 -37.5t-16 -38t-38 -16z" />
    <glyph glyph-name="slash" unicode="/" horiz-adv-x="377" 
d="M368 718l-307 -746l-55 19l306 747z" />
    <glyph glyph-name="zero" unicode="0" horiz-adv-x="584" 
d="M293 -16q-83 0 -137.5 53.5t-76.5 133.5t-22 183q0 75 13 139.5t40 117.5t73.5 83t109.5 30q62 0 108.5 -30t73 -83t39.5 -117t13 -140q0 -103 -21.5 -183t-76 -133.5t-136.5 -53.5zM293 661q-48 0 -82 -30.5t-50 -81t-22 -97.5t-6 -98t6 -98t22 -97.5t50 -81t82 -30.5
q47 0 80.5 30.5t49 81t22 97.5t6.5 98t-6.5 98t-22 97.5t-49 81t-80.5 30.5z" />
    <glyph glyph-name="one" unicode="1" horiz-adv-x="584" 
d="M359 0h-75v618l-134 -113l-43 52l184 151h68v-708z" />
    <glyph glyph-name="two" unicode="2" horiz-adv-x="584" 
d="M503 0h-442v73l271 283q92 97 92 172q0 60 -39 97t-98 37q-54 0 -92 -33.5t-50 -89.5h-75q13 86 73 135.5t145 49.5q90 0 150.5 -52t60.5 -140q0 -37 -10 -69.5t-37 -68.5t-44 -55.5t-61 -64.5l-199 -207h355v-67z" />
    <glyph glyph-name="three" unicode="3" horiz-adv-x="584" 
d="M502 194q0 -95 -64.5 -152.5t-162.5 -57.5q-184 0 -237 167h78q18 -47 60 -75t98 -29q65 -1 109.5 40t44.5 108q0 50 -29.5 84.5t-70 47.5t-86.5 13h-28v62h29q70 0 117 31.5t47 100.5q0 57 -39 92.5t-96 35.5q-43 0 -77.5 -22t-52.5 -61h-79q27 73 83.5 109t128.5 36
q88 0 147 -50t59 -136q0 -60 -35.5 -105.5t-96.5 -59.5v-2q70 -13 111.5 -61t41.5 -116z" />
    <glyph glyph-name="four" unicode="4" horiz-adv-x="584" 
d="M541 166h-107v-166h-72v166h-327v70l306 472h93v-477h107v-65zM362 231v392h-2l-249 -392h251z" />
    <glyph glyph-name="five" unicode="5" horiz-adv-x="584" 
d="M152 366l-47 20l7 322h365v-66h-295l-6 -213q41 17 99 17q103 0 167.5 -61.5t64.5 -161.5q0 -109 -68.5 -174t-169.5 -65q-80 0 -139.5 39t-88.5 117h80q20 -43 59 -68t89 -25q67 0 114.5 46.5t47.5 122.5q0 79 -50 124t-128 45q-46 0 -101 -19z" />
    <glyph glyph-name="six" unicode="6" horiz-adv-x="584" 
d="M57 211q0 88 67 196l185 301h89l-197 -308l1 -1q39 34 108 34q91 0 153.5 -62.5t62.5 -157.5q0 -101 -66.5 -165t-167.5 -64q-102 0 -168.5 64t-66.5 163zM133 210q0 -70 44.5 -116.5t114.5 -46.5t114 46t44 118q0 70 -43.5 116t-112.5 46q-70 0 -115.5 -46t-45.5 -117z
" />
    <glyph glyph-name="seven" unicode="7" horiz-adv-x="584" 
d="M498 708v-70l-287 -638h-85l296 642h-354v66h430z" />
    <glyph glyph-name="eight" unicode="8" horiz-adv-x="584" 
d="M521 191q0 -94 -65.5 -150.5t-162.5 -56.5q-98 0 -164 56.5t-66 150.5q0 67 38.5 116.5t100.5 67.5v2q-52 19 -82.5 61.5t-30.5 98.5q0 83 58.5 135t145.5 52q86 0 144.5 -51t58.5 -134q0 -56 -31 -100.5t-82 -61.5v-2q63 -17 100.5 -67t37.5 -117zM422 535
q0 55 -37.5 91t-91.5 36q-56 0 -93 -35.5t-37 -91.5q0 -54 37 -91t93 -37q55 0 92 37.5t37 90.5zM445 195q0 64 -43.5 106.5t-108.5 42.5q-66 0 -110 -42t-44 -107q0 -66 42.5 -107.5t111.5 -41.5q67 0 109.5 42t42.5 107z" />
    <glyph glyph-name="nine" unicode="9" horiz-adv-x="584" 
d="M527 498q0 -87 -66 -195l-185 -303h-89l197 310l-1 1q-40 -34 -109 -34q-92 0 -153.5 62t-61.5 157q0 101 66.5 164.5t168.5 63.5q101 0 167 -64t66 -162zM453 498q0 70 -45 117t-115 47t-114.5 -46t-44.5 -118q0 -70 44 -116t113 -46q71 0 116.5 46t45.5 116z" />
    <glyph glyph-name="colon" unicode=":" horiz-adv-x="294" 
d="M147 375q-23 0 -38.5 15.5t-15.5 37.5t16 38t38 16t38 -15.5t16 -37.5q0 -23 -15.5 -38.5t-38.5 -15.5zM147 -6q-22 0 -38 15.5t-16 37.5q0 23 15.5 38.5t38.5 15.5q22 0 38 -15.5t16 -37.5t-16 -38t-38 -16z" />
    <glyph glyph-name="semicolon" unicode=";" horiz-adv-x="294" 
d="M147 375q-23 0 -38.5 15.5t-15.5 37.5t16 38t38 16t38 -15.5t16 -37.5q0 -23 -15.5 -38.5t-38.5 -15.5zM52 -116q47 87 57 130q-28 19 -28 49q0 23 14 37t35 14t36 -15t15 -46q0 -36 -27.5 -94t-55.5 -101z" />
    <glyph glyph-name="less" unicode="&#x3c;" horiz-adv-x="666" 
d="M581 49l-496 229v50l497 228v-65l-406 -188l405 -188v-66z" />
    <glyph glyph-name="equal" unicode="=" horiz-adv-x="666" 
d="M587 355h-508v63h508v-63zM587 189h-508v62h508v-62z" />
    <glyph glyph-name="greater" unicode="&#x3e;" horiz-adv-x="666" 
d="M85 49v66l405 188l-405 188v65l496 -228v-50z" />
    <glyph glyph-name="question" unicode="?" horiz-adv-x="492" 
d="M254 101q22 0 37.5 -15.5t15.5 -37.5t-15.5 -38t-37.5 -16t-38 15.5t-16 37.5q0 23 15.5 38.5t38.5 15.5zM286 218v-17h-73v29q0 53 19 93.5t65 83.5q32 29 45 43t24.5 38t11.5 52q0 54 -35 85.5t-90 31.5q-54 0 -89.5 -34t-38.5 -86h-74q4 88 61.5 137.5t144.5 49.5
q85 0 141 -47.5t56 -132.5q0 -57 -22.5 -92t-71.5 -77q-43 -36 -58.5 -69.5t-15.5 -87.5z" />
    <glyph glyph-name="at" unicode="@" horiz-adv-x="828" 
d="M570 426v-269q0 -30 13 -46.5t34 -16.5q39 0 63.5 57t24.5 131q0 113 -84 198t-207 85q-129 0 -214.5 -95t-85.5 -227q0 -133 85.5 -227t215.5 -94q52 0 104.5 18.5t86.5 47.5l25 -45q-99 -73 -216 -73q-155 0 -257 108.5t-102 264.5q0 157 102.5 265t255.5 108
q148 0 248.5 -99t100.5 -235q0 -35 -8 -73t-24 -75.5t-46 -61.5t-70 -24q-33 0 -58 18t-32 53q-40 -76 -130 -76q-75 0 -120.5 57t-45.5 141q0 83 46 140.5t124 57.5t119 -68h1v55h51zM285 241q0 -62 30 -104t85 -42q57 0 86.5 41.5t29.5 104.5q0 62 -31 104t-85 42
q-55 0 -85 -42t-30 -104z" />
    <glyph glyph-name="A" unicode="A" horiz-adv-x="697" 
d="M689 0h-86l-76 183h-358l-76 -183h-84l307 708h71zM500 249l-151 374l-153 -374h304z" />
    <glyph glyph-name="B" unicode="B" horiz-adv-x="660" 
d="M605 197q0 -99 -72.5 -148t-182.5 -49h-258v708h259q58 0 105.5 -15t81.5 -56t34 -104q0 -61 -36 -102t-94 -56v-2q69 -8 116 -54t47 -122zM496 525q0 119 -170 119h-158v-243h171q67 0 112 31.5t45 92.5zM528 200q0 69 -48.5 102.5t-129.5 33.5h-182v-271h172
q81 0 134.5 32t53.5 103z" />
    <glyph glyph-name="C" unicode="C" horiz-adv-x="713" 
d="M691 103q-43 -57 -112 -89.5t-153 -32.5q-162 0 -265.5 105t-103.5 269q0 163 105.5 267.5t266.5 104.5q73 0 141 -27.5t107 -77.5l-59 -47q-30 39 -82 62t-107 23q-129 0 -209.5 -88.5t-80.5 -216.5q0 -131 79.5 -218.5t208.5 -87.5q62 0 116 25t88 71z" />
    <glyph glyph-name="D" unicode="D" horiz-adv-x="764" 
d="M707 354q0 -88 -32.5 -157.5t-88 -111.5t-123 -63.5t-141.5 -21.5h-230v708h230q75 0 142 -21t122.5 -62t88 -111t32.5 -160zM307 642h-139v-575h139q142 0 230.5 75t88.5 212q0 140 -88.5 214t-230.5 74z" />
    <glyph glyph-name="E" unicode="E" horiz-adv-x="618" 
d="M572 0h-480v708h470v-67h-394v-246h328v-65h-328v-262h404v-68z" />
    <glyph glyph-name="F" unicode="F" horiz-adv-x="606" 
d="M563 641h-395v-247h365v-66h-365v-328h-76v708h471v-67z" />
    <glyph glyph-name="G" unicode="G" horiz-adv-x="783" 
d="M695 43q-114 -62 -262 -62q-166 0 -271 105.5t-105 268.5q0 164 105.5 268t268.5 104q158 0 255 -89l-53 -56q-35 36 -88.5 57t-112.5 21q-131 0 -212 -88t-81 -217q0 -131 81 -218t216 -87q108 0 185 40v221h-166v65h240v-333z" />
    <glyph glyph-name="H" unicode="H" horiz-adv-x="746" 
d="M654 0h-77v329h-409v-329h-76v708h76v-311h409v311h77v-708z" />
    <glyph glyph-name="I" unicode="I" horiz-adv-x="260" 
d="M168 0h-76v708h76v-708z" />
    <glyph glyph-name="J" unicode="J" horiz-adv-x="450" 
d="M363 169q0 -84 -44.5 -135.5t-122.5 -51.5q-84 0 -124 50.5t-40 155.5h72q0 -73 21.5 -105.5t71.5 -32.5q31 0 50 13t27.5 41t10.5 53t2 67v484h76v-539z" />
    <glyph glyph-name="K" unicode="K" horiz-adv-x="649" 
d="M552 0l-246 351l-138 -152v-199h-76v708h76v-417l363 417h98l-271 -301l289 -407h-95z" />
    <glyph glyph-name="L" unicode="L" horiz-adv-x="507" 
d="M495 0h-403v708h76v-640h327v-68z" />
    <glyph glyph-name="M" unicode="M" horiz-adv-x="904" 
d="M812 0h-76v619h-3l-258 -619h-50l-257 619h-2v-619h-74v708h119l241 -584h2l238 584h120v-708z" />
    <glyph glyph-name="N" unicode="N" horiz-adv-x="755" 
d="M663 0h-77l-420 586h-1v-586h-73v708h76l421 -587v587h74v-708z" />
    <glyph glyph-name="O" unicode="O" horiz-adv-x="856" 
d="M800 355q0 -163 -106 -268.5t-266 -105.5q-161 0 -266 105.5t-105 268.5q0 164 105 268t266 104q162 0 267 -104t105 -268zM718 355q0 128 -81 216.5t-209 88.5t-209 -88.5t-81 -216.5q0 -130 80.5 -217.5t209.5 -87.5q130 0 210 87.5t80 217.5z" />
    <glyph glyph-name="P" unicode="P" horiz-adv-x="651" 
d="M594 503q0 -101 -63.5 -161t-176.5 -60h-186v-282h-76v708h259q118 0 180.5 -54.5t62.5 -150.5zM518 499q0 68 -44 105t-128 37h-178v-294h179q80 0 125.5 41t45.5 111z" />
    <glyph glyph-name="Q" unicode="Q" horiz-adv-x="856" 
d="M800 355q0 -172 -117 -278l68 -68l-49 -49l-74 74q-92 -53 -200 -53q-161 0 -266 105.5t-105 268.5q0 164 105 268t266 104q162 0 267 -104t105 -268zM718 355q0 128 -81 216.5t-209 88.5t-209 -88.5t-81 -216.5q0 -130 80.5 -217.5t209.5 -87.5q82 0 147 37l-96 98
l47 48l103 -103q89 86 89 225z" />
    <glyph glyph-name="R" unicode="R" horiz-adv-x="654" 
d="M621 0h-94l-191 294h-168v-294h-76v708h265q113 0 176 -54t63 -148q0 -87 -54 -139.5t-124 -61.5zM520 503q0 69 -46 103.5t-131 34.5h-175v-282h177q87 0 131 39t44 105z" />
    <glyph glyph-name="S" unicode="S" horiz-adv-x="571" 
d="M510 188q0 -89 -69 -148t-169 -59q-56 0 -109 22.5t-76 41t-40 37.5l53 51q76 -84 176 -84q69 0 114 38t45 96q0 50 -36.5 79.5t-103.5 55.5q-5 2 -33 12.5t-35 13.5l-31.5 13.5t-32.5 16t-27.5 17.5t-26.5 21t-20 23.5t-17.5 28.5t-9 32.5t-4.5 38.5q0 82 61 137t157 55
q59 0 114 -23.5t89 -66.5l-50 -48q-64 71 -152 71q-67 0 -106 -33.5t-39 -84.5q0 -50 35 -78.5t101 -54.5q109 -42 140 -60q102 -58 102 -161z" />
    <glyph glyph-name="T" unicode="T" horiz-adv-x="560" 
d="M549 641h-231v-641h-76v641h-231v67h538v-67z" />
    <glyph glyph-name="U" unicode="U" horiz-adv-x="718" 
d="M632 708v-444q0 -122 -69 -202.5t-204 -80.5t-204.5 80.5t-69.5 202.5v444h76v-377q0 -31 1 -52t5 -53t11 -54t22 -47t35.5 -40t52 -25t71.5 -10t71 10t51.5 25t35.5 39.5t22.5 46.5t11.5 54t5 53.5t1 52.5v377h75z" />
    <glyph glyph-name="V" unicode="V" horiz-adv-x="631" 
d="M627 708l-275 -708h-75l-273 708h84l227 -612h2l228 612h82z" />
    <glyph glyph-name="W" unicode="W" horiz-adv-x="978" 
d="M963 708l-209 -708h-83l-181 604h-2l-181 -604h-82l-210 708h82l171 -601h2l176 601h87l177 -601h2l171 601h80z" />
    <glyph glyph-name="X" unicode="X" horiz-adv-x="645" 
d="M622 0h-96l-207 315l-204 -315h-93l252 374l-227 334h92l183 -281l182 281h88l-225 -336z" />
    <glyph glyph-name="Y" unicode="Y" horiz-adv-x="598" 
d="M596 708l-259 -401v-307h-76v307l-259 401h94l205 -337l207 337h88z" />
    <glyph glyph-name="Z" unicode="Z" horiz-adv-x="593" 
d="M557 0h-518v69l419 572h-409v67h500v-70l-419 -570h427v-68z" />
    <glyph glyph-name="bracketleft" unicode="[" horiz-adv-x="310" 
d="M231 -156h-166v888h166v-52h-100v-784h100v-52z" />
    <glyph glyph-name="backslash" unicode="\" horiz-adv-x="377" 
d="M10 718l54 20l308 -747l-55 -19z" />
    <glyph glyph-name="bracketright" unicode="]" horiz-adv-x="310" 
d="M79 -156v52h101v784h-101v52h166v-888h-166z" />
    <glyph glyph-name="asciicircum" unicode="^" horiz-adv-x="666" 
d="M81 289l225 419h54l225 -419h-70l-183 346l-181 -346h-70z" />
    <glyph glyph-name="underscore" unicode="_" horiz-adv-x="500" 
d="M500 -131h-500v50h500v-50z" />
    <glyph glyph-name="grave" unicode="`" horiz-adv-x="247" 
d="M-18 708h87l101 -144h-59z" />
    <glyph glyph-name="a" unicode="a" horiz-adv-x="540" 
d="M452 0h-69v77h-3q-21 -43 -64.5 -66.5t-96.5 -23.5q-70 0 -118.5 36.5t-48.5 106.5t49.5 112.5t152.5 43.5q60 0 128 -16v37q0 120 -128 120q-84 0 -138 -57l-43 50q72 67 183 67q99 0 147.5 -44.5t48.5 -145.5v-297zM382 187v29q-72 17 -134 16q-60 -1 -91 -28t-31 -73
q0 -43 30.5 -64.5t76.5 -21.5q66 0 107.5 40.5t41.5 101.5z" />
    <glyph glyph-name="b" unicode="b" horiz-adv-x="633" 
d="M164 385q26 46 74 74t106 28q104 0 169.5 -72t65.5 -179q0 -106 -65.5 -177.5t-170.5 -71.5q-56 0 -105.5 27t-76.5 76h-2v-90h-70v756h72v-371h3zM505 236q0 78 -47 134.5t-126 56.5q-76 0 -125.5 -57t-49.5 -134q0 -78 49.5 -133t125.5 -55q79 0 126 55.5t47 132.5z
" />
    <glyph glyph-name="c" unicode="c" horiz-adv-x="509" 
d="M477 406l-48 -38q-55 59 -128 59q-77 0 -125 -56t-48 -135q0 -77 48 -132.5t126 -55.5q44 0 81.5 20t58.5 44l45 -44q-75 -81 -187 -81q-108 0 -177 71.5t-69 177.5q0 107 70.5 179t177.5 72q113 0 175 -81z" />
    <glyph glyph-name="d" unicode="d" horiz-adv-x="632" 
d="M471 385v371h73v-756h-71v91h-2q-27 -49 -76.5 -76.5t-105.5 -27.5q-105 0 -170.5 72t-65.5 178t66 178t169 72q58 0 106 -28t75 -74h2zM128 237q0 -78 46.5 -133.5t125.5 -55.5q76 0 126 55.5t50 133.5q0 77 -50 133.5t-126 56.5q-79 0 -125.5 -56t-46.5 -134z" />
    <glyph glyph-name="e" unicode="e" horiz-adv-x="567" 
d="M512 218h-387q5 -76 51.5 -123t123.5 -47q97 0 157 77l47 -39q-32 -44 -88 -71.5t-124 -27.5q-103 0 -170.5 68t-67.5 173q0 108 68.5 183.5t171.5 75.5q69 0 121 -35.5t75.5 -86t23.5 -106.5q0 -15 -2 -41zM447 272q-1 65 -46 110t-111 45q-69 0 -113 -47t-51 -108h321z
" />
    <glyph glyph-name="f" unicode="f" horiz-adv-x="302" 
d="M321 768v-62h-53q-54 0 -71.5 -29t-17.5 -99v-104h114v-60h-114v-414h-73v414h-95v60h95v129q0 49 13.5 83t37 51t47.5 24t52 7h65z" />
    <glyph glyph-name="g" unicode="g" horiz-adv-x="630" 
d="M471 20v74h-2q-26 -47 -74.5 -74t-104.5 -27q-105 0 -170.5 70.5t-65.5 174.5q0 105 65.5 177t169.5 72q57 0 106 -27.5t76 -78.5h2v93h71v-449q0 -56 -13 -102t-41.5 -84.5t-79 -60t-118.5 -21.5q-63 0 -122.5 23t-100.5 63l46 56q70 -79 178 -79q178 0 178 200z
M128 240q0 -76 47.5 -131t124.5 -55t126.5 54t49.5 132q0 77 -50 132t-126 55q-78 0 -125 -54.5t-47 -132.5z" />
    <glyph glyph-name="h" unicode="h" horiz-adv-x="600" 
d="M160 383h3q19 44 65 74t104 30q94 0 138.5 -60.5t44.5 -155.5v-271h-72v270q0 67 -30 112.5t-96 45.5q-69 0 -113 -52t-44 -135v-241h-73v756h73v-373z" />
    <glyph glyph-name="i" unicode="i" horiz-adv-x="248" 
d="M124 610q-21 0 -35 14t-14 36t14 37t35 15q22 0 36.5 -15t14.5 -37t-14.5 -36t-36.5 -14zM160 0h-72v474h72v-474z" />
    <glyph glyph-name="j" unicode="j" horiz-adv-x="248" 
d="M160 474v-558q0 -47 -12.5 -79.5t-35.5 -48t-48.5 -22t-57.5 -6.5h-28v60h17q54 0 74 28.5t20 96.5v529h71zM124 610q-21 0 -35 14t-14 36t14 37t35 15q22 0 36.5 -15t14.5 -37t-14.5 -36t-36.5 -14z" />
    <glyph glyph-name="k" unicode="k" horiz-adv-x="502" 
d="M400 0l-158 252l-81 -79v-173h-72v756h72v-502h2l211 220h98l-178 -176l199 -298h-93z" />
    <glyph glyph-name="l" unicode="l" horiz-adv-x="250" 
d="M161 0h-72v756h72v-756z" />
    <glyph glyph-name="m" unicode="m" horiz-adv-x="933" 
d="M485 379h3q52 108 180 108q77 0 128.5 -51t51.5 -142v-294h-73v283q0 62 -28.5 103.5t-91.5 41.5q-64 0 -108 -52t-44 -125v-251h-72v283q0 62 -28 103.5t-90 41.5q-64 0 -108 -52t-44 -125v-251h-73v474h72v-85h3q18 43 62 70.5t100 27.5q55 0 97.5 -28t62.5 -80z" />
    <glyph glyph-name="n" unicode="n" horiz-adv-x="603" 
d="M162 383q19 45 66 74.5t107 29.5q96 0 139.5 -59.5t43.5 -160.5v-267h-73v273q0 65 -30.5 110t-95.5 45q-70 0 -114 -52t-44 -135v-241h-73v474h71v-91h3z" />
    <glyph glyph-name="o" unicode="o" horiz-adv-x="609" 
d="M556 238q0 -108 -72 -179.5t-180 -71.5t-179 71t-71 180q0 108 71 178.5t179 70.5t180 -70.5t72 -178.5zM480 238q0 79 -47.5 134t-128.5 55q-80 0 -128 -55t-48 -134t48 -134.5t128 -55.5q81 0 128.5 55.5t47.5 134.5z" />
    <glyph glyph-name="p" unicode="p" horiz-adv-x="632" 
d="M158 382h3q26 48 74 76.5t108 28.5q104 0 169.5 -71.5t65.5 -178.5q0 -106 -65.5 -178t-170.5 -72q-56 0 -104.5 27t-74.5 74h-3v-328h-73v714h71v-92zM503 237q0 78 -46.5 134t-126.5 56q-76 0 -125.5 -56t-49.5 -134q0 -77 50 -133t125 -56q80 0 126.5 55.5t46.5 133.5
z" />
    <glyph glyph-name="q" unicode="q" horiz-adv-x="631" 
d="M473 382v92h71v-714h-73v329h-2q-26 -47 -75 -74.5t-105 -27.5q-105 0 -170.5 72t-65.5 178q0 107 65.5 178.5t169.5 71.5q59 0 107.5 -28.5t74.5 -76.5h3zM128 237q0 -78 46.5 -133.5t125.5 -55.5q76 0 126 55.5t50 133.5q0 77 -50 133.5t-126 56.5q-79 0 -125.5 -56
t-46.5 -134z" />
    <glyph glyph-name="r" unicode="r" horiz-adv-x="348" 
d="M159 381q19 50 59.5 78t90.5 28q16 0 31 -3v-67q-20 4 -37 4q-69 0 -105.5 -50.5t-36.5 -120.5v-250h-73v474h69v-93h2z" />
    <glyph glyph-name="s" unicode="s" horiz-adv-x="501" 
d="M456 136q0 -69 -55.5 -109t-144.5 -40q-75 0 -132 28t-89 61l54 47q77 -75 172 -75q54 0 88.5 21.5t34.5 60.5q0 17 -7.5 29.5t-18.5 20.5t-32.5 15t-38.5 11t-48 9q-28 4 -43 7q-147 28 -147 125q0 65 52.5 102.5t136.5 37.5q63 0 116.5 -21t86.5 -57l-50 -45
q-24 26 -66 44t-86 18q-49 0 -83.5 -18.5t-34.5 -54.5q0 -24 20 -40t47.5 -23.5t72.5 -14.5q96 -14 145.5 -44.5t49.5 -94.5z" />
    <glyph glyph-name="t" unicode="t" horiz-adv-x="321" 
d="M303 0h-55q-83 0 -114.5 36.5t-31.5 130.5v247h-84v60h83v131h72v-131h128v-60h-128v-262q0 -58 22.5 -75t67.5 -17h40v-60z" />
    <glyph glyph-name="u" unicode="u" horiz-adv-x="594" 
d="M432 88q-20 -43 -65 -72t-100 -29q-95 0 -138.5 61t-43.5 156v270h72v-268q0 -67 30 -112.5t98 -45.5q69 0 108.5 52.5t39.5 132.5v241h73v-474h-70v88h-4z" />
    <glyph glyph-name="v" unicode="v" horiz-adv-x="483" 
d="M469 474l-186 -474h-80l-190 474h80l149 -397h2l148 397h77z" />
    <glyph glyph-name="w" unicode="w" horiz-adv-x="750" 
d="M731 474l-150 -474h-78l-127 384h-2l-126 -384h-77l-151 474h78l113 -389h2l123 389h79l125 -389h2l113 389h76z" />
    <glyph glyph-name="x" unicode="x" horiz-adv-x="493" 
d="M389 0l-144 200l-144 -200h-88l188 249l-169 225h90l125 -177l125 177h86l-168 -224l189 -250h-90z" />
    <glyph glyph-name="y" unicode="y" horiz-adv-x="481" 
d="M467 474l-221 -575q-28 -72 -60.5 -106t-96.5 -34q-38 0 -55 3v64q12 -3 52 -3q35 0 54.5 20t35.5 62l34 91l-197 478h81l154 -399h1l141 399h77z" />
    <glyph glyph-name="z" unicode="z" horiz-adv-x="455" 
d="M417 0h-379v60l279 354h-265v60h354v-61l-280 -352h291v-61z" />
    <glyph glyph-name="braceleft" unicode="{" horiz-adv-x="310" 
d="M3 259v58q75 0 75 97v190q0 66 32 97t83 31h61v-54h-49q-61 0 -61 -82v-187q0 -57 -27 -86t-58 -34v-2q31 -4 58 -32.5t27 -89.5v-185q0 -82 61 -82h49v-54h-61q-51 0 -83 31t-32 97v187q0 100 -75 100z" />
    <glyph glyph-name="bar" unicode="|" horiz-adv-x="349" 
d="M142 771h65v-1007h-65v1007z" />
    <glyph glyph-name="braceright" unicode="}" horiz-adv-x="310" 
d="M307 259q-75 0 -75 -100v-187q0 -66 -32 -97t-82 -31h-62v54h50q61 0 61 82v185q0 61 27 89.5t59 32.5v2q-32 5 -59 34t-27 86v187q0 82 -61 82h-50v54h62q50 0 82 -31t32 -97v-190q0 -97 75 -97v-58z" />
    <glyph glyph-name="asciitilde" unicode="~" horiz-adv-x="666" 
d="M85 279q57 97 140 97q55 0 110 -37q66 -43 105 -43q55 0 96 74l46 -44q-59 -95 -140 -95q-54 0 -112 37q-41 26 -60.5 34t-42.5 8q-56 0 -96 -73z" />
    <glyph glyph-name="uni00A0" unicode="&#xa0;" horiz-adv-x="250" 
 />
    <glyph glyph-name="exclamdown" unicode="&#xa1;" horiz-adv-x="317" 
d="M158 380q-22 0 -38 16t-16 38t16 37.5t38 15.5t38 -16t16 -38t-15.5 -37.5t-38.5 -15.5zM188 278l16 -505h-92l16 505h60z" />
    <glyph glyph-name="cent" unicode="&#xa2;" horiz-adv-x="584" 
d="M342 533v-368q67 2 111 52l49 -46q-58 -65 -160 -69v-121h-42v121q-98 9 -157.5 77.5t-59.5 169.5q0 102 59 169t158 77v132h42v-131q101 -3 160 -71l-51 -46q-44 51 -109 54zM300 532q-67 -10 -106 -61t-39 -122t39 -122.5t106 -61.5v367z" />
    <glyph glyph-name="sterling" unicode="&#xa3;" horiz-adv-x="584" 
d="M250 392h167v-57h-167v-63q0 -95 -45 -148q48 -6 93 -35q61 -40 105 -40q49 0 83 68h75q-23 -69 -65 -102t-91 -33q-54 0 -112 37q-40 26 -60 34t-43 8q-55 0 -94 -69l-46 42q16 26 41.5 52.5l41.5 43t28.5 46t12.5 68.5v91h-97v57h97v102q0 97 53 164.5t162 67.5
q93 0 151 -55l-45 -52q-42 44 -107 44q-138 0 -138 -187v-84z" />
    <glyph glyph-name="currency" unicode="&#xa4;" horiz-adv-x="863" 
d="M684 8l-95 94q-66 -50 -157 -50q-90 0 -157 52l-97 -96l-44 44l95 96q-52 66 -52 161q0 91 49 157l-92 92l45 44l92 -92q68 54 161 54q94 0 161 -53l90 91l45 -44l-90 -90q51 -65 51 -159q0 -95 -54 -163l93 -94zM613 309q0 78 -50 132t-131 54q-80 0 -129.5 -53.5
t-49.5 -132.5t49.5 -133t129.5 -54q81 0 131 54t50 133z" />
    <glyph glyph-name="yen" unicode="&#xa5;" horiz-adv-x="584" 
d="M256 329h-176v52h156l-219 327h88l191 -305l187 305h85l-216 -327h153v-52h-176v-103h176v-51h-176v-175h-73v175h-176v51h176v103z" />
    <glyph glyph-name="brokenbar" unicode="&#xa6;" horiz-adv-x="222" 
d="M142 331h-62v344h62v-344zM142 -175h-62v344h62v-344z" />
    <glyph glyph-name="section" unicode="&#xa7;" horiz-adv-x="584" 
d="M396 151q75 -42 75 -123q0 -79 -57 -122.5t-137 -43.5q-63 0 -116 26t-83 75l63 37q19 -36 56.5 -55t80.5 -19q115 0 115 104q0 23 -15.5 43t-32.5 30t-44 23l-53.5 24t-51 23.5t-40 22.5t-35 29t-19 35.5t-8.5 47.5q0 51 32 87t78 52q-80 44 -80 122q0 75 55.5 116.5
t132.5 41.5q57 0 102.5 -21.5t70.5 -60.5l-55 -41q-16 28 -47.5 45t-70.5 17q-47 0 -80.5 -25t-33.5 -69q0 -36 22.5 -58t68.5 -43q12 -6 41.5 -19t40.5 -18.5l33.5 -17.5t32 -19.5t24 -21t20 -26t10.5 -29.5t5 -36q0 -49 -28.5 -84t-71.5 -49zM342 182q34 7 58.5 31.5
t24.5 60.5q0 25 -9 43.5t-30.5 33t-35.5 21.5t-45 20l-48 20q-37 -8 -64.5 -31.5t-27.5 -63.5q0 -28 16.5 -49t35 -31.5t53.5 -24.5z" />
    <glyph glyph-name="dieresis" unicode="&#xa8;" horiz-adv-x="247" 
d="M32 599q-21 0 -35.5 15t-14.5 35t14.5 35t35.5 15q22 0 36.5 -14.5t14.5 -35.5t-15 -35.5t-36 -14.5zM214 599q-21 0 -35.5 15t-14.5 35t14.5 35t35.5 15q22 0 36.5 -14.5t14.5 -35.5t-15 -35.5t-36 -14.5z" />
    <glyph glyph-name="copyright" unicode="&#xa9;" horiz-adv-x="800" 
d="M20 353q0 157 111.5 267t269.5 110q157 0 268 -110t111 -267q0 -156 -111 -265.5t-268 -109.5q-158 0 -269.5 109.5t-111.5 265.5zM69 353q0 -136 97.5 -232.5t234.5 -96.5t233.5 96.5t96.5 232.5q0 137 -96.5 234t-233.5 97t-234.5 -97t-97.5 -234zM568 519l-46 -36
q-39 46 -105 46q-72 0 -117.5 -49.5t-45.5 -122.5q0 -75 44.5 -124t116.5 -49q69 0 111 50l47 -34q-59 -70 -159 -70q-99 0 -162.5 63.5t-63.5 163.5q0 101 65 163.5t164 62.5q43 0 84.5 -17t66.5 -47z" />
    <glyph glyph-name="ordfeminine" unicode="&#xaa;" horiz-adv-x="345" 
d="M244 597v14q0 35 -17 51t-54 16q-49 0 -86 -37l-32 36q46 44 120 44q65 0 93.5 -28.5t28.5 -95.5v-167h-53v38q-37 -45 -95 -45q-45 0 -75.5 22.5t-30.5 66.5q0 94 132 94q37 0 69 -9zM244 544v14q-31 8 -65 8q-79 0 -79 -53q0 -48 59 -48q36 0 60.5 22t24.5 57zM300 364
v-60h-254v60h254z" />
    <glyph glyph-name="guillemotleft" unicode="&#xab;" horiz-adv-x="501" 
d="M250 46h-70l-128 196l128 195h70l-126 -195zM447 46h-70l-128 196l128 195h70l-126 -195z" />
    <glyph glyph-name="logicalnot" unicode="&#xac;" horiz-adv-x="666" 
d="M589 137h-63v218h-449v63h512v-281z" />
    <glyph glyph-name="uni00AD" unicode="&#xad;" horiz-adv-x="314" 
d="M265 216h-216v62h216v-62z" />
    <glyph glyph-name="registered" unicode="&#xae;" horiz-adv-x="800" 
d="M593 140h-76l-115 176h-99v-176h-63v437h181q73 0 113.5 -34t40.5 -93q0 -53 -32 -85t-75 -40zM510 448q0 79 -98 79h-109v-160h111q48 0 72 22t24 59zM20 353q0 157 111.5 267t269.5 110q157 0 268 -110t111 -267q0 -156 -111 -265.5t-268 -109.5q-158 0 -269.5 109.5
t-111.5 265.5zM69 353q0 -136 97.5 -232.5t234.5 -96.5t233.5 96.5t96.5 232.5q0 137 -96.5 234t-233.5 97t-234.5 -97t-97.5 -234z" />
    <glyph glyph-name="macron" unicode="&#xaf;" horiz-adv-x="247" 
d="M262 604h-277v53h277v-53z" />
    <glyph glyph-name="degree" unicode="&#xb0;" horiz-adv-x="400" 
d="M352 567q0 -64 -44 -108t-108 -44t-108 44t-44 108t44 108t108 44t108 -44t44 -108zM301 567q0 42 -29.5 72t-71.5 30t-71.5 -30t-29.5 -72t29.5 -71.5t71.5 -29.5t71.5 29.5t29.5 71.5z" />
    <glyph glyph-name="plusminus" unicode="&#xb1;" horiz-adv-x="666" 
d="M589 339h-225v-160h-63v160h-224v63h224v164h63v-164h225v-63zM588 42h-510v63h510v-63z" />
    <glyph glyph-name="twosuperior" unicode="&#xb2;" 
d="M331 286h-288v52l168 165q52 52 52 92q0 30 -20 50.5t-52 20.5q-31 0 -52.5 -19t-29.5 -51h-61q8 56 47.5 89.5t96.5 33.5t96.5 -33t39.5 -87q0 -30 -15.5 -59.5t-31.5 -46.5t-51 -51l-106 -102h207v-54z" />
    <glyph glyph-name="threesuperior" unicode="&#xb3;" 
d="M328 406q0 -59 -42 -95t-105 -36q-119 0 -157 112h66q11 -27 35 -42.5t55 -15.5q37 0 61.5 21t24.5 56q0 38 -31.5 56.5t-73.5 18.5h-26v50h26q39 0 66 17t27 52q0 29 -21.5 48t-52.5 19q-50 0 -75 -48h-64q18 49 56.5 74.5t84.5 25.5q57 0 95 -31.5t38 -85.5
q0 -31 -16 -56t-46 -38q36 -13 55.5 -40t19.5 -62z" />
    <glyph glyph-name="acute" unicode="&#xb4;" horiz-adv-x="247" 
d="M265 708l-129 -144h-59l101 144h87z" />
    <glyph glyph-name="mu" unicode="&#xb5;" horiz-adv-x="571" 
d="M81 474h72v-270q0 -156 119 -156q63 0 103.5 48t40.5 128v250h72v-474h-69v91h-2q-19 -46 -64 -75t-99 -29q-69 0 -101 46v-269h-72v710z" />
    <glyph glyph-name="paragraph" unicode="&#xb6;" horiz-adv-x="600" 
d="M513 -126h-61v785h-127v-785h-62v457q-95 0 -154 52t-59 130q0 96 60.5 145.5t167.5 49.5h235v-834z" />
    <glyph glyph-name="periodcentered" unicode="&#xb7;" horiz-adv-x="254" 
d="M128 235q-23 0 -39 15.5t-16 37.5t16 38t39 16q22 0 37.5 -15.5t15.5 -37.5q0 -23 -15.5 -38.5t-37.5 -15.5z" />
    <glyph glyph-name="cedilla" unicode="&#xb8;" horiz-adv-x="247" 
d="M235 -145q0 -47 -37 -67.5t-85 -20.5q-54 0 -100 22l16 37q37 -17 80 -17q31 0 49 9.5t18 38.5q0 19 -17 28t-40 9q-29 0 -49 -9l-17 19l64 96h41l-50 -74q16 4 35 4q38 0 65 -18t27 -57z" />
    <glyph glyph-name="onesuperior" unicode="&#xb9;" 
d="M240 286h-62v350l-81 -61l-29 45l120 92h52v-426z" />
    <glyph glyph-name="ordmasculine" unicode="&#xba;" horiz-adv-x="371" 
d="M334 574q0 -65 -42 -107t-107 -42t-107 42t-42 107t42 106.5t107 41.5t107 -41.5t42 -106.5zM96 574q0 -41 24 -69t65 -28q43 0 67 28t24 69t-24 68.5t-67 27.5q-41 0 -65 -27.5t-24 -68.5zM329 364v-60h-285v60h285z" />
    <glyph glyph-name="guillemotright" unicode="&#xbb;" horiz-adv-x="501" 
d="M252 242l-128 -195h-70l125 195l-126 195h70zM449 242l-128 -195h-70l125 195l-126 195h70z" />
    <glyph glyph-name="onequarter" unicode="&#xbc;" horiz-adv-x="870" 
d="M664 713l-447 -746l-45 25l448 746zM240 286h-62v350l-81 -61l-29 45l120 92h52v-426zM818 96h-65v-96h-61v96h-200v50l191 280h70v-279h65v-51zM692 147l-1 198l-133 -198h134z" />
    <glyph glyph-name="onehalf" unicode="&#xbd;" horiz-adv-x="870" 
d="M240 286h-62v350l-81 -61l-29 45l120 92h52v-426zM664 713l-447 -746l-45 25l448 746zM797 0h-288v52l168 165q52 52 52 92q0 30 -20 50.5t-52 20.5q-31 0 -52.5 -19t-29.5 -51h-61q8 56 47.5 89.5t96.5 33.5t96.5 -33t39.5 -87q0 -30 -15.5 -59.5t-31.5 -46.5t-51 -51
l-106 -102h207v-54z" />
    <glyph glyph-name="threequarters" unicode="&#xbe;" horiz-adv-x="870" 
d="M328 406q0 -59 -42 -95t-105 -36q-119 0 -157 112h66q11 -27 35 -42.5t55 -15.5q37 0 61.5 21t24.5 56q0 38 -31.5 56.5t-73.5 18.5h-26v50h26q39 0 66 17t27 52q0 29 -21.5 48t-52.5 19q-50 0 -75 -48h-64q18 49 56.5 74.5t84.5 25.5q57 0 95 -31.5t38 -85.5
q0 -31 -16 -56t-46 -38q36 -13 55.5 -40t19.5 -62zM674 713l-447 -746l-45 25l448 746zM818 96h-65v-96h-61v96h-200v50l191 280h70v-279h65v-51zM692 147l-1 198l-133 -198h134z" />
    <glyph glyph-name="questiondown" unicode="&#xbf;" horiz-adv-x="492" 
d="M253 380q-22 0 -37.5 15.5t-15.5 37.5t15.5 38t37.5 16t38 -15.5t16 -37.5q0 -23 -15.5 -38.5t-38.5 -15.5zM221 263v17h73v-29q0 -53 -19 -93.5t-65 -83.5q-32 -29 -45 -43t-24.5 -38t-11.5 -52q0 -54 35 -85.5t90 -31.5q54 0 89.5 34t38.5 86h74q-4 -88 -61.5 -137.5
t-144.5 -49.5q-85 0 -141 47.5t-56 132.5q0 57 22.5 92t71.5 77q43 36 58.5 69.5t15.5 87.5z" />
    <glyph glyph-name="Agrave" unicode="&#xc0;" horiz-adv-x="697" 
d="M689 0h-86l-76 183h-358l-76 -183h-84l307 708h71zM500 249l-151 374l-153 -374h304zM189 908h88l101 -144h-60z" />
    <glyph glyph-name="Aacute" unicode="&#xc1;" horiz-adv-x="697" 
d="M689 0h-86l-76 183h-358l-76 -183h-84l307 708h71zM500 249l-151 374l-153 -374h304zM505 908l-129 -144h-59l100 144h88z" />
    <glyph glyph-name="Acircumflex" unicode="&#xc2;" horiz-adv-x="697" 
d="M689 0h-86l-76 183h-358l-76 -183h-84l307 708h71zM500 249l-151 374l-153 -374h304zM306 908h84l110 -144h-71l-81 109l-81 -109h-70z" />
    <glyph glyph-name="Atilde" unicode="&#xc3;" horiz-adv-x="697" 
d="M689 0h-86l-76 183h-358l-76 -183h-84l307 708h71zM500 249l-151 374l-153 -374h304zM352 859q43 -22 65 -22q34 0 45 46h43q-17 -101 -88 -101q-34 0 -73 22q-40 22 -64 22q-35 0 -44 -48h-44q17 102 88 102q32 0 72 -21z" />
    <glyph glyph-name="Adieresis" unicode="&#xc4;" horiz-adv-x="697" 
d="M689 0h-86l-76 183h-358l-76 -183h-84l307 708h71zM500 249l-151 374l-153 -374h304zM257 800q-21 0 -35.5 14.5t-14.5 34.5q0 21 14.5 36t35.5 15q22 0 36.5 -15t14.5 -36q0 -20 -15 -34.5t-36 -14.5zM439 800q-21 0 -35.5 14.5t-14.5 34.5q0 21 14.5 36t35.5 15
q22 0 36.5 -15t14.5 -36q0 -20 -15 -34.5t-36 -14.5z" />
    <glyph glyph-name="Aring" unicode="&#xc5;" horiz-adv-x="697" 
d="M689 0h-86l-76 183h-358l-76 -183h-84l278 643q-43 28 -49 78q-6 32 5 64q12 32 41.5 51.5t65.5 19.5t65.5 -19.5t40.5 -51.5q13 -32 6 -63q-6 -51 -48 -78zM500 249l-151 374l-153 -374h304zM409 740q0 24 -17 41t-42 17t-42 -17t-17 -41q0 -25 17 -41.5t42 -16.5
t42 16.5t17 41.5z" />
    <glyph glyph-name="AE" unicode="&#xc6;" horiz-adv-x="1033" 
d="M987 0h-467v183h-320l-105 -183h-86l417 708h551v-67h-381v-246h316v-65h-316v-262h391v-68zM464 641l-226 -392h282v392h-56z" />
    <glyph glyph-name="Ccedilla" unicode="&#xc7;" horiz-adv-x="713" 
d="M499 -145q0 -47 -37 -67.5t-85 -20.5q-54 0 -100 22l16 37q37 -17 80 -17q31 0 49 9.5t18 38.5q0 19 -17 28t-40 9q-29 0 -49 -9l-17 19l53 81q-140 18 -226.5 119.5t-86.5 250.5q0 163 105.5 267.5t266.5 104.5q73 0 141 -27.5t107 -77.5l-59 -47q-30 39 -82 62t-107 23
q-129 0 -209.5 -88.5t-80.5 -216.5q0 -131 79.5 -218.5t208.5 -87.5q62 0 116 25t88 71l60 -42q-43 -57 -112 -89.5t-153 -32.5q-3 0 -8.5 0.5t-8.5 0.5l-37 -56q16 4 35 4q38 0 65 -18t27 -57z" />
    <glyph glyph-name="Egrave" unicode="&#xc8;" horiz-adv-x="618" 
d="M572 0h-480v708h470v-67h-394v-246h328v-65h-328v-262h404v-68zM201 908h88l101 -144h-60z" />
    <glyph glyph-name="Eacute" unicode="&#xc9;" horiz-adv-x="618" 
d="M572 0h-480v708h470v-67h-394v-246h328v-65h-328v-262h404v-68zM453 908l-129 -144h-59l100 144h88z" />
    <glyph glyph-name="Ecircumflex" unicode="&#xca;" horiz-adv-x="618" 
d="M572 0h-480v708h470v-67h-394v-246h328v-65h-328v-262h404v-68zM281 908h84l110 -144h-71l-81 109l-81 -109h-70z" />
    <glyph glyph-name="Edieresis" unicode="&#xcb;" horiz-adv-x="618" 
d="M572 0h-480v708h470v-67h-394v-246h328v-65h-328v-262h404v-68zM236 800q-21 0 -35.5 14.5t-14.5 34.5q0 21 14.5 36t35.5 15q22 0 36.5 -15t14.5 -36q0 -20 -15 -34.5t-36 -14.5zM418 800q-21 0 -35.5 14.5t-14.5 34.5q0 21 14.5 36t35.5 15q22 0 36.5 -15t14.5 -36
q0 -20 -15 -34.5t-36 -14.5z" />
    <glyph glyph-name="Igrave" unicode="&#xcc;" horiz-adv-x="260" 
d="M168 0h-76v708h76v-708zM-26 908h88l101 -144h-60z" />
    <glyph glyph-name="Iacute" unicode="&#xcd;" horiz-adv-x="260" 
d="M168 0h-76v708h76v-708zM282 908l-129 -144h-59l100 144h88z" />
    <glyph glyph-name="Icircumflex" unicode="&#xce;" horiz-adv-x="260" 
d="M168 0h-76v708h76v-708zM87 908h84l110 -144h-71l-81 109l-81 -109h-70z" />
    <glyph glyph-name="Idieresis" unicode="&#xcf;" horiz-adv-x="260" 
d="M168 0h-76v708h76v-708zM38 800q-21 0 -35.5 14.5t-14.5 34.5q0 21 14.5 36t35.5 15q22 0 36.5 -15t14.5 -36q0 -20 -15 -34.5t-36 -14.5zM220 800q-21 0 -35.5 14.5t-14.5 34.5q0 21 14.5 36t35.5 15q22 0 36.5 -15t14.5 -36q0 -20 -15 -34.5t-36 -14.5z" />
    <glyph glyph-name="Eth" unicode="&#xd0;" horiz-adv-x="764" 
d="M92 342h-75v55h75v311h230q75 0 142 -21t122.5 -62t88 -111t32.5 -160q0 -88 -32.5 -157.5t-88 -111.5t-123 -63.5t-141.5 -21.5h-230v342zM168 397h244v-55h-244v-275h139q142 0 230.5 75t88.5 212q0 140 -88.5 214t-230.5 74h-139v-245z" />
    <glyph glyph-name="Ntilde" unicode="&#xd1;" horiz-adv-x="755" 
d="M663 0h-77l-420 586h-1v-586h-73v708h76l421 -587v587h74v-708zM374 859q43 -22 65 -22q34 0 45 46h43q-17 -101 -88 -101q-34 0 -73 22q-40 22 -64 22q-35 0 -44 -48h-44q17 102 88 102q32 0 72 -21z" />
    <glyph glyph-name="Ograve" unicode="&#xd2;" horiz-adv-x="856" 
d="M800 355q0 -163 -106 -268.5t-266 -105.5q-161 0 -266 105.5t-105 268.5q0 164 105 268t266 104q162 0 267 -104t105 -268zM718 355q0 128 -81 216.5t-209 88.5t-209 -88.5t-81 -216.5q0 -130 80.5 -217.5t209.5 -87.5q130 0 210 87.5t80 217.5zM267 908h88l101 -144h-60
z" />
    <glyph glyph-name="Oacute" unicode="&#xd3;" horiz-adv-x="856" 
d="M800 355q0 -163 -106 -268.5t-266 -105.5q-161 0 -266 105.5t-105 268.5q0 164 105 268t266 104q162 0 267 -104t105 -268zM718 355q0 128 -81 216.5t-209 88.5t-209 -88.5t-81 -216.5q0 -130 80.5 -217.5t209.5 -87.5q130 0 210 87.5t80 217.5zM565 908l-129 -144h-59
l100 144h88z" />
    <glyph glyph-name="Ocircumflex" unicode="&#xd4;" horiz-adv-x="856" 
d="M800 355q0 -163 -106 -268.5t-266 -105.5q-161 0 -266 105.5t-105 268.5q0 164 105 268t266 104q162 0 267 -104t105 -268zM718 355q0 128 -81 216.5t-209 88.5t-209 -88.5t-81 -216.5q0 -130 80.5 -217.5t209.5 -87.5q130 0 210 87.5t80 217.5zM380 908h84l110 -144h-71
l-81 109l-81 -109h-70z" />
    <glyph glyph-name="Otilde" unicode="&#xd5;" horiz-adv-x="856" 
d="M800 355q0 -163 -106 -268.5t-266 -105.5q-161 0 -266 105.5t-105 268.5q0 164 105 268t266 104q162 0 267 -104t105 -268zM718 355q0 128 -81 216.5t-209 88.5t-209 -88.5t-81 -216.5q0 -130 80.5 -217.5t209.5 -87.5q130 0 210 87.5t80 217.5zM426 859q43 -22 65 -22
q34 0 45 46h43q-17 -101 -88 -101q-34 0 -73 22q-40 22 -64 22q-35 0 -44 -48h-44q17 102 88 102q32 0 72 -21z" />
    <glyph glyph-name="Odieresis" unicode="&#xd6;" horiz-adv-x="856" 
d="M800 355q0 -163 -106 -268.5t-266 -105.5q-161 0 -266 105.5t-105 268.5q0 164 105 268t266 104q162 0 267 -104t105 -268zM718 355q0 128 -81 216.5t-209 88.5t-209 -88.5t-81 -216.5q0 -130 80.5 -217.5t209.5 -87.5q130 0 210 87.5t80 217.5zM331 800
q-21 0 -35.5 14.5t-14.5 34.5q0 21 14.5 36t35.5 15q22 0 36.5 -15t14.5 -36q0 -20 -15 -34.5t-36 -14.5zM513 800q-21 0 -35.5 14.5t-14.5 34.5q0 21 14.5 36t35.5 15q22 0 36.5 -15t14.5 -36q0 -20 -15 -34.5t-36 -14.5z" />
    <glyph glyph-name="multiply" unicode="&#xd7;" horiz-adv-x="666" 
d="M377 305l174 -175l-45 -44l-173 172l-173 -172l-45 44l174 173l-173 176l44 43l173 -174l173 174l44 -43z" />
    <glyph glyph-name="Oslash" unicode="&#xd8;" horiz-adv-x="856" 
d="M800 355q0 -163 -106 -268.5t-266 -105.5q-113 0 -201 54l-71 -93l-54 37l72 95q-117 107 -117 281q0 164 105 268t266 104q110 0 201 -54l69 90l54 -39l-69 -91q117 -106 117 -278zM138 355q0 -133 82 -220l365 480q-71 45 -157 45q-128 0 -209 -88.5t-81 -216.5z
M718 355q0 130 -82 217l-365 -479q70 -43 157 -43q130 0 210 87.5t80 217.5z" />
    <glyph glyph-name="Ugrave" unicode="&#xd9;" horiz-adv-x="718" 
d="M632 708v-444q0 -122 -69 -202.5t-204 -80.5t-204.5 80.5t-69.5 202.5v444h76v-377q0 -31 1 -52t5 -53t11 -54t22 -47t35.5 -40t52 -25t71.5 -10t71 10t51.5 25t35.5 39.5t22.5 46.5t11.5 54t5 53.5t1 52.5v377h75zM210 908h88l101 -144h-60z" />
    <glyph glyph-name="Uacute" unicode="&#xda;" horiz-adv-x="718" 
d="M632 708v-444q0 -122 -69 -202.5t-204 -80.5t-204.5 80.5t-69.5 202.5v444h76v-377q0 -31 1 -52t5 -53t11 -54t22 -47t35.5 -40t52 -25t71.5 -10t71 10t51.5 25t35.5 39.5t22.5 46.5t11.5 54t5 53.5t1 52.5v377h75zM490 908l-129 -144h-59l100 144h88z" />
    <glyph glyph-name="Ucircumflex" unicode="&#xdb;" horiz-adv-x="718" 
d="M632 708v-444q0 -122 -69 -202.5t-204 -80.5t-204.5 80.5t-69.5 202.5v444h76v-377q0 -31 1 -52t5 -53t11 -54t22 -47t35.5 -40t52 -25t71.5 -10t71 10t51.5 25t35.5 39.5t22.5 46.5t11.5 54t5 53.5t1 52.5v377h75zM316 908h84l110 -144h-71l-81 109l-81 -109h-70z" />
    <glyph glyph-name="Udieresis" unicode="&#xdc;" horiz-adv-x="718" 
d="M632 708v-444q0 -122 -69 -202.5t-204 -80.5t-204.5 80.5t-69.5 202.5v444h76v-377q0 -31 1 -52t5 -53t11 -54t22 -47t35.5 -40t52 -25t71.5 -10t71 10t51.5 25t35.5 39.5t22.5 46.5t11.5 54t5 53.5t1 52.5v377h75zM267 800q-21 0 -35.5 14.5t-14.5 34.5q0 21 14.5 36
t35.5 15q22 0 36.5 -15t14.5 -36q0 -20 -15 -34.5t-36 -14.5zM449 800q-21 0 -35.5 14.5t-14.5 34.5q0 21 14.5 36t35.5 15q22 0 36.5 -15t14.5 -36q0 -20 -15 -34.5t-36 -14.5z" />
    <glyph glyph-name="Yacute" unicode="&#xdd;" horiz-adv-x="598" 
d="M596 708l-259 -401v-307h-76v307l-259 401h94l205 -337l207 337h88zM442 908l-129 -144h-59l100 144h88z" />
    <glyph glyph-name="Thorn" unicode="&#xde;" horiz-adv-x="588" 
d="M544 368q0 -99 -67 -147.5t-176 -48.5h-133v-172h-76v708h76v-150h133q109 0 176 -47t67 -143zM465 367q0 126 -189 126h-108v-255h126q77 0 124 31t47 98z" />
    <glyph glyph-name="germandbls" unicode="&#xdf;" horiz-adv-x="605" 
d="M554 218q0 -103 -64 -166t-172 -63q-34 0 -65 6v62q25 -6 56 -6q78 0 124.5 46t46.5 124q0 83 -51 126.5t-133 43.5h-13v64h13q59 0 96 33t37 92q0 56 -35 90t-92 34q-41 0 -70 -16t-44.5 -43.5t-22 -56.5t-6.5 -63v-525h-72v529q0 103 53.5 171t164.5 68q85 0 141 -50.5
t56 -131.5q0 -60 -32.5 -101.5t-86.5 -56.5v-2q77 -11 124 -66t47 -142z" />
    <glyph glyph-name="agrave" unicode="&#xe0;" horiz-adv-x="540" 
d="M452 0h-69v77h-3q-21 -43 -64.5 -66.5t-96.5 -23.5q-70 0 -118.5 36.5t-48.5 106.5t49.5 112.5t152.5 43.5q60 0 128 -16v37q0 120 -128 120q-84 0 -138 -57l-43 50q72 67 183 67q99 0 147.5 -44.5t48.5 -145.5v-297zM382 187v29q-72 17 -134 16q-60 -1 -91 -28t-31 -73
q0 -43 30.5 -64.5t76.5 -21.5q66 0 107.5 40.5t41.5 101.5zM121 708h87l101 -144h-59z" />
    <glyph glyph-name="aacute" unicode="&#xe1;" horiz-adv-x="540" 
d="M452 0h-69v77h-3q-21 -43 -64.5 -66.5t-96.5 -23.5q-70 0 -118.5 36.5t-48.5 106.5t49.5 112.5t152.5 43.5q60 0 128 -16v37q0 120 -128 120q-84 0 -138 -57l-43 50q72 67 183 67q99 0 147.5 -44.5t48.5 -145.5v-297zM382 187v29q-72 17 -134 16q-60 -1 -91 -28t-31 -73
q0 -43 30.5 -64.5t76.5 -21.5q66 0 107.5 40.5t41.5 101.5zM388 708l-129 -144h-59l101 144h87z" />
    <glyph glyph-name="acircumflex" unicode="&#xe2;" horiz-adv-x="540" 
d="M452 0h-69v77h-3q-21 -43 -64.5 -66.5t-96.5 -23.5q-70 0 -118.5 36.5t-48.5 106.5t49.5 112.5t152.5 43.5q60 0 128 -16v37q0 120 -128 120q-84 0 -138 -57l-43 50q72 67 183 67q99 0 147.5 -44.5t48.5 -145.5v-297zM382 187v29q-72 17 -134 16q-60 -1 -91 -28t-31 -73
q0 -43 30.5 -64.5t76.5 -21.5q66 0 107.5 40.5t41.5 101.5zM227 708h84l110 -144h-71l-81 109l-81 -109h-70z" />
    <glyph glyph-name="atilde" unicode="&#xe3;" horiz-adv-x="540" 
d="M452 0h-69v77h-3q-21 -43 -64.5 -66.5t-96.5 -23.5q-70 0 -118.5 36.5t-48.5 106.5t49.5 112.5t152.5 43.5q60 0 128 -16v37q0 120 -128 120q-84 0 -138 -57l-43 50q72 67 183 67q99 0 147.5 -44.5t48.5 -145.5v-297zM382 187v29q-72 17 -134 16q-60 -1 -91 -28t-31 -73
q0 -43 30.5 -64.5t76.5 -21.5q66 0 107.5 40.5t41.5 101.5zM273 659q44 -23 65 -23q34 0 45 47h43q-17 -101 -88 -101q-34 0 -73 22q-38 21 -64 21q-35 0 -44 -47h-44q17 102 88 102q32 0 72 -21z" />
    <glyph glyph-name="adieresis" unicode="&#xe4;" horiz-adv-x="540" 
d="M452 0h-69v77h-3q-21 -43 -64.5 -66.5t-96.5 -23.5q-70 0 -118.5 36.5t-48.5 106.5t49.5 112.5t152.5 43.5q60 0 128 -16v37q0 120 -128 120q-84 0 -138 -57l-43 50q72 67 183 67q99 0 147.5 -44.5t48.5 -145.5v-297zM382 187v29q-72 17 -134 16q-60 -1 -91 -28t-31 -73
q0 -43 30.5 -64.5t76.5 -21.5q66 0 107.5 40.5t41.5 101.5zM178 599q-21 0 -35.5 15t-14.5 35t14.5 35t35.5 15q22 0 36.5 -14.5t14.5 -35.5t-15 -35.5t-36 -14.5zM360 599q-21 0 -35.5 15t-14.5 35t14.5 35t35.5 15q22 0 36.5 -14.5t14.5 -35.5t-15 -35.5t-36 -14.5z" />
    <glyph glyph-name="aring" unicode="&#xe5;" horiz-adv-x="540" 
d="M452 0h-69v77h-3q-21 -43 -64.5 -66.5t-96.5 -23.5q-70 0 -118.5 36.5t-48.5 106.5t49.5 112.5t152.5 43.5q60 0 128 -16v37q0 120 -128 120q-84 0 -138 -57l-43 50q72 67 183 67q99 0 147.5 -44.5t48.5 -145.5v-297zM382 187v29q-72 17 -134 16q-60 -1 -91 -28t-31 -73
q0 -43 30.5 -64.5t76.5 -21.5q66 0 107.5 40.5t41.5 101.5zM369 652q0 -42 -29 -70t-71 -28q-41 0 -69.5 28t-28.5 69q0 42 28.5 70t69.5 28q42 0 71 -28t29 -69zM328 652q0 24 -17 40t-42 16q-24 0 -40.5 -16t-16.5 -40t17 -40.5t40 -16.5q25 0 42 16.5t17 40.5z" />
    <glyph glyph-name="ae" unicode="&#xe6;" horiz-adv-x="892" 
d="M430 382h3q31 46 80 73.5t107 27.5q103 0 161 -68.5t58 -156.5q0 -15 -2 -41h-387q6 -76 52.5 -122.5t122.5 -46.5q97 0 157 77l47 -39q-32 -44 -87.5 -71.5t-123.5 -27.5t-120.5 31.5t-81.5 87.5h-2q-57 -119 -195 -119q-70 0 -118.5 36.5t-48.5 106.5t49.5 112.5
t152.5 43.5q60 0 128 -16v33q0 120 -128 120q-84 0 -138 -57l-43 50q72 67 183 67q140 0 174 -101zM772 271q-1 65 -45.5 108.5t-110.5 43.5q-70 0 -114 -45.5t-51 -106.5h321zM382 187v29q-67 16 -128 16q-63 0 -95.5 -26.5t-32.5 -74.5q0 -43 30.5 -64.5t76.5 -21.5
q66 0 107.5 40.5t41.5 101.5z" />
    <glyph glyph-name="ccedilla" unicode="&#xe7;" horiz-adv-x="509" 
d="M368 -145q0 -47 -37 -67.5t-85 -20.5q-54 0 -100 22l16 37q37 -17 80 -17q32 0 49.5 9.5t17.5 38.5q0 19 -17 28t-40 9q-30 0 -49 -9l-17 19l59 89q-86 17 -138.5 84.5t-52.5 158.5q0 107 70.5 179t177.5 72q113 0 175 -81l-48 -38q-55 59 -128 59q-77 0 -125 -56
t-48 -135q0 -77 48 -132.5t126 -55.5q44 0 81.5 20t58.5 44l45 -44q-75 -81 -187 -81q-12 0 -18 1l-41 -62q16 4 35 4q38 0 65 -18t27 -57z" />
    <glyph glyph-name="egrave" unicode="&#xe8;" horiz-adv-x="567" 
d="M512 218h-387q5 -76 51.5 -123t123.5 -47q97 0 157 77l47 -39q-32 -44 -88 -71.5t-124 -27.5q-103 0 -170.5 68t-67.5 173q0 108 68.5 183.5t171.5 75.5q69 0 121 -35.5t75.5 -86t23.5 -106.5q0 -15 -2 -41zM447 272q-1 65 -46 110t-111 45q-69 0 -113 -47t-51 -108h321z
M145 708h87l101 -144h-59z" />
    <glyph glyph-name="eacute" unicode="&#xe9;" horiz-adv-x="567" 
d="M512 218h-387q5 -76 51.5 -123t123.5 -47q97 0 157 77l47 -39q-32 -44 -88 -71.5t-124 -27.5q-103 0 -170.5 68t-67.5 173q0 108 68.5 183.5t171.5 75.5q69 0 121 -35.5t75.5 -86t23.5 -106.5q0 -15 -2 -41zM447 272q-1 65 -46 110t-111 45q-69 0 -113 -47t-51 -108h321z
M440 708l-129 -144h-59l101 144h87z" />
    <glyph glyph-name="ecircumflex" unicode="&#xea;" horiz-adv-x="567" 
d="M512 218h-387q5 -76 51.5 -123t123.5 -47q97 0 157 77l47 -39q-32 -44 -88 -71.5t-124 -27.5q-103 0 -170.5 68t-67.5 173q0 108 68.5 183.5t171.5 75.5q69 0 121 -35.5t75.5 -86t23.5 -106.5q0 -15 -2 -41zM447 272q-1 65 -46 110t-111 45q-69 0 -113 -47t-51 -108h321z
M242 708h84l110 -144h-71l-81 109l-81 -109h-70z" />
    <glyph glyph-name="edieresis" unicode="&#xeb;" horiz-adv-x="567" 
d="M512 218h-387q5 -76 51.5 -123t123.5 -47q97 0 157 77l47 -39q-32 -44 -88 -71.5t-124 -27.5q-103 0 -170.5 68t-67.5 173q0 108 68.5 183.5t171.5 75.5q69 0 121 -35.5t75.5 -86t23.5 -106.5q0 -15 -2 -41zM447 272q-1 65 -46 110t-111 45q-69 0 -113 -47t-51 -108h321z
M193 599q-21 0 -35.5 15t-14.5 35t14.5 35t35.5 15q22 0 36.5 -14.5t14.5 -35.5t-15 -35.5t-36 -14.5zM375 599q-21 0 -35.5 15t-14.5 35t14.5 35t35.5 15q22 0 36.5 -14.5t14.5 -35.5t-15 -35.5t-36 -14.5z" />
    <glyph glyph-name="igrave" unicode="&#xec;" horiz-adv-x="248" 
d="M158 0h-72v474h72v-474zM-23 708h87l101 -144h-59z" />
    <glyph glyph-name="iacute" unicode="&#xed;" horiz-adv-x="248" 
d="M165 0h-72v474h72v-474zM275 708l-129 -144h-59l101 144h87z" />
    <glyph glyph-name="icircumflex" unicode="&#xee;" horiz-adv-x="248" 
d="M160 0h-72v474h72v-474zM85 708h84l110 -144h-71l-81 109l-81 -109h-70z" />
    <glyph glyph-name="idieresis" unicode="&#xef;" horiz-adv-x="248" 
d="M161 0h-72v474h72v-474zM35 599q-21 0 -35.5 15t-14.5 35t14.5 35t35.5 15q22 0 36.5 -14.5t14.5 -35.5t-15 -35.5t-36 -14.5zM217 599q-21 0 -35.5 15t-14.5 35t14.5 35t35.5 15q22 0 36.5 -14.5t14.5 -35.5t-15 -35.5t-36 -14.5z" />
    <glyph glyph-name="eth" unicode="&#xf0;" horiz-adv-x="608" 
d="M185 741l60 35q50 -43 77 -73l116 56l41 -36l-119 -58q81 -93 135 -192q57 -104 57 -218t-65.5 -191t-185.5 -77q-109 0 -179.5 70.5t-70.5 179.5q0 108 70.5 179t176.5 71q86 0 146 -60l2 2q-9 18 -25 43q-64 101 -124 163l-120 -58l-38 37l121 58q-25 28 -75 69z
M478 237q0 78 -48 133t-129 55t-128.5 -54.5t-47.5 -133.5t47.5 -134t128.5 -55t129 55t48 134z" />
    <glyph glyph-name="ntilde" unicode="&#xf1;" horiz-adv-x="603" 
d="M162 383q19 45 66 74.5t107 29.5q96 0 139.5 -59.5t43.5 -160.5v-267h-73v273q0 65 -30.5 110t-95.5 45q-70 0 -114 -52t-44 -135v-241h-73v474h71v-91h3zM309 659q44 -23 65 -23q34 0 45 47h43q-17 -101 -88 -101q-34 0 -73 22q-38 21 -64 21q-35 0 -44 -47h-44
q17 102 88 102q32 0 72 -21z" />
    <glyph glyph-name="ograve" unicode="&#xf2;" horiz-adv-x="609" 
d="M556 238q0 -108 -72 -179.5t-180 -71.5t-179 71t-71 180q0 108 71 178.5t179 70.5t180 -70.5t72 -178.5zM480 238q0 79 -47.5 134t-128.5 55q-80 0 -128 -55t-48 -134t48 -134.5t128 -55.5q81 0 128.5 55.5t47.5 134.5zM148 708h87l101 -144h-59z" />
    <glyph glyph-name="oacute" unicode="&#xf3;" horiz-adv-x="609" 
d="M556 238q0 -108 -72 -179.5t-180 -71.5t-179 71t-71 180q0 108 71 178.5t179 70.5t180 -70.5t72 -178.5zM480 238q0 79 -47.5 134t-128.5 55q-80 0 -128 -55t-48 -134t48 -134.5t128 -55.5q81 0 128.5 55.5t47.5 134.5zM446 708l-129 -144h-59l101 144h87z" />
    <glyph glyph-name="ocircumflex" unicode="&#xf4;" horiz-adv-x="609" 
d="M556 238q0 -108 -72 -179.5t-180 -71.5t-179 71t-71 180q0 108 71 178.5t179 70.5t180 -70.5t72 -178.5zM480 238q0 79 -47.5 134t-128.5 55q-80 0 -128 -55t-48 -134t48 -134.5t128 -55.5q81 0 128.5 55.5t47.5 134.5zM261 708h84l110 -144h-71l-81 109l-81 -109h-70z
" />
    <glyph glyph-name="otilde" unicode="&#xf5;" horiz-adv-x="609" 
d="M556 238q0 -108 -72 -179.5t-180 -71.5t-179 71t-71 180q0 108 71 178.5t179 70.5t180 -70.5t72 -178.5zM480 238q0 79 -47.5 134t-128.5 55q-80 0 -128 -55t-48 -134t48 -134.5t128 -55.5q81 0 128.5 55.5t47.5 134.5zM307 659q44 -23 65 -23q34 0 45 47h43
q-17 -101 -88 -101q-34 0 -73 22q-38 21 -64 21q-35 0 -44 -47h-44q17 102 88 102q32 0 72 -21z" />
    <glyph glyph-name="odieresis" unicode="&#xf6;" horiz-adv-x="609" 
d="M556 238q0 -108 -72 -179.5t-180 -71.5t-179 71t-71 180q0 108 71 178.5t179 70.5t180 -70.5t72 -178.5zM480 238q0 79 -47.5 134t-128.5 55q-80 0 -128 -55t-48 -134t48 -134.5t128 -55.5q81 0 128.5 55.5t47.5 134.5zM212 599q-21 0 -35.5 15t-14.5 35t14.5 35t35.5 15
q22 0 36.5 -14.5t14.5 -35.5t-15 -35.5t-36 -14.5zM394 599q-21 0 -35.5 15t-14.5 35t14.5 35t35.5 15q22 0 36.5 -14.5t14.5 -35.5t-15 -35.5t-36 -14.5z" />
    <glyph glyph-name="divide" unicode="&#xf7;" horiz-adv-x="666" 
d="M389 469q0 -24 -16 -40.5t-40 -16.5t-40 16.5t-16 40.5q0 23 16 40t40 17t40 -17t16 -40zM589 271h-512v64h512v-64zM389 133q0 -24 -16 -40.5t-40 -16.5t-40 16.5t-16 40.5t16 40.5t40 16.5t40 -17t16 -40z" />
    <glyph glyph-name="oslash" unicode="&#xf8;" horiz-adv-x="609" 
d="M484 413q72 -69 72 -177t-72 -178.5t-180 -70.5q-77 0 -139 40l-60 -73l-43 30l62 74q-70 70 -70 178t71 177.5t179 69.5q77 0 139 -39l56 69l42 -31zM441 358l-236 -279q40 -31 99 -31q81 0 128.5 54.5t47.5 133.5q0 71 -39 122zM403 393q-43 30 -99 30
q-80 0 -128 -54.5t-48 -132.5q0 -70 39 -123z" />
    <glyph glyph-name="ugrave" unicode="&#xf9;" horiz-adv-x="594" 
d="M432 88q-20 -43 -65 -72t-100 -29q-95 0 -138.5 61t-43.5 156v270h72v-268q0 -67 30 -112.5t98 -45.5q69 0 108.5 52.5t39.5 132.5v241h73v-474h-70v88h-4zM155 708h87l101 -144h-59z" />
    <glyph glyph-name="uacute" unicode="&#xfa;" horiz-adv-x="594" 
d="M432 88q-20 -43 -65 -72t-100 -29q-95 0 -138.5 61t-43.5 156v270h72v-268q0 -67 30 -112.5t98 -45.5q69 0 108.5 52.5t39.5 132.5v241h73v-474h-70v88h-4zM446 708l-129 -144h-59l101 144h87z" />
    <glyph glyph-name="ucircumflex" unicode="&#xfb;" horiz-adv-x="594" 
d="M432 88q-20 -43 -65 -72t-100 -29q-95 0 -138.5 61t-43.5 156v270h72v-268q0 -67 30 -112.5t98 -45.5q69 0 108.5 52.5t39.5 132.5v241h73v-474h-70v88h-4zM258 708h84l110 -144h-71l-81 109l-81 -109h-70z" />
    <glyph glyph-name="udieresis" unicode="&#xfc;" horiz-adv-x="594" 
d="M432 88q-20 -43 -65 -72t-100 -29q-95 0 -138.5 61t-43.5 156v270h72v-268q0 -67 30 -112.5t98 -45.5q69 0 108.5 52.5t39.5 132.5v241h73v-474h-70v88h-4zM209 599q-21 0 -35.5 15t-14.5 35t14.5 35t35.5 15q22 0 36.5 -14.5t14.5 -35.5t-15 -35.5t-36 -14.5zM391 599
q-21 0 -35.5 15t-14.5 35t14.5 35t35.5 15q22 0 36.5 -14.5t14.5 -35.5t-15 -35.5t-36 -14.5z" />
    <glyph glyph-name="yacute" unicode="&#xfd;" horiz-adv-x="481" 
d="M467 474l-221 -575q-28 -72 -60.5 -106t-96.5 -34q-38 0 -55 3v64q12 -3 52 -3q35 0 54.5 20t35.5 62l34 91l-197 478h81l154 -399h1l141 399h77zM375 708l-129 -144h-59l101 144h87z" />
    <glyph glyph-name="thorn" unicode="&#xfe;" horiz-adv-x="633" 
d="M160 382h3q24 48 72 76.5t108 28.5q104 0 169.5 -71.5t65.5 -178.5q0 -106 -65.5 -178t-170.5 -72q-56 0 -104.5 27t-74.5 74h-3v-328h-72v996h72v-374zM503 237q0 78 -46.5 134t-126.5 56q-76 0 -125.5 -56t-49.5 -134q0 -77 50 -133t125 -56q80 0 126.5 55.5
t46.5 133.5z" />
    <glyph glyph-name="ydieresis" unicode="&#xff;" horiz-adv-x="481" 
d="M467 474l-221 -575q-28 -72 -60.5 -106t-96.5 -34q-38 0 -55 3v64q12 -3 52 -3q35 0 54.5 20t35.5 62l34 91l-197 478h81l154 -399h1l141 399h77zM151 599q-21 0 -35.5 15t-14.5 35t14.5 35t35.5 15q22 0 36.5 -14.5t14.5 -35.5t-15 -35.5t-36 -14.5zM333 599
q-21 0 -35.5 15t-14.5 35t14.5 35t35.5 15q22 0 36.5 -14.5t14.5 -35.5t-15 -35.5t-36 -14.5z" />
    <glyph glyph-name="Amacron" unicode="&#x100;" horiz-adv-x="697" 
d="M689 0h-86l-76 183h-358l-76 -183h-84l307 708h71zM500 249l-151 374l-153 -374h304zM487 804h-277v53h277v-53z" />
    <glyph glyph-name="amacron" unicode="&#x101;" horiz-adv-x="540" 
d="M452 0h-69v77h-3q-21 -43 -64.5 -66.5t-96.5 -23.5q-70 0 -118.5 36.5t-48.5 106.5t49.5 112.5t152.5 43.5q60 0 128 -16v37q0 120 -128 120q-84 0 -138 -57l-43 50q72 67 183 67q99 0 147.5 -44.5t48.5 -145.5v-297zM382 187v29q-72 17 -134 16q-60 -1 -91 -28t-31 -73
q0 -43 30.5 -64.5t76.5 -21.5q66 0 107.5 40.5t41.5 101.5zM408 604h-277v53h277v-53z" />
    <glyph glyph-name="Abreve" unicode="&#x102;" horiz-adv-x="697" 
d="M689 0h-86l-76 183h-358l-76 -183h-84l307 708h71zM500 249l-151 374l-153 -374h304zM497 905q-7 -65 -47 -99.5t-102 -34.5q-63 0 -103 34.5t-46 99.5h45q7 -40 35.5 -61t68.5 -21q87 0 105 82h44z" />
    <glyph glyph-name="abreve" unicode="&#x103;" horiz-adv-x="540" 
d="M452 0h-69v77h-3q-21 -43 -64.5 -66.5t-96.5 -23.5q-70 0 -118.5 36.5t-48.5 106.5t49.5 112.5t152.5 43.5q60 0 128 -16v37q0 120 -128 120q-84 0 -138 -57l-43 50q72 67 183 67q99 0 147.5 -44.5t48.5 -145.5v-297zM382 187v29q-72 17 -134 16q-60 -1 -91 -28t-31 -73
q0 -43 30.5 -64.5t76.5 -21.5q66 0 107.5 40.5t41.5 101.5zM419 705q-7 -65 -47 -99.5t-102 -34.5q-63 0 -103 34.5t-46 99.5h45q7 -40 35.5 -61t68.5 -21q87 0 105 82h44z" />
    <glyph glyph-name="Aogonek" unicode="&#x104;" horiz-adv-x="697" 
d="M680 -148l18 -42q-42 -35 -91 -35q-38 0 -65.5 23.5t-27.5 61.5q0 65 89 140l-76 183h-358l-76 -183h-84l307 708h71l302 -708h-41q-74 -72 -74 -123q0 -23 13 -35.5t36 -12.5q30 0 57 23zM500 249l-151 374l-153 -374h304z" />
    <glyph glyph-name="aogonek" unicode="&#x105;" horiz-adv-x="540" 
d="M463 -148l18 -42q-42 -35 -91 -35q-38 0 -65.5 23.5t-27.5 61.5q0 65 89 140h-3v77h-3q-21 -43 -64.5 -66.5t-96.5 -23.5q-70 0 -118.5 36.5t-48.5 106.5t49.5 112.5t152.5 43.5q60 0 128 -16v37q0 120 -128 120q-84 0 -138 -57l-43 50q72 67 183 67q99 0 147.5 -44.5
t48.5 -145.5v-297h-21q-74 -72 -74 -123q0 -23 13 -35.5t36 -12.5q30 0 57 23zM382 187v29q-72 17 -134 16q-60 -1 -91 -28t-31 -73q0 -43 30.5 -64.5t76.5 -21.5q66 0 107.5 40.5t41.5 101.5z" />
    <glyph glyph-name="Cacute" unicode="&#x106;" horiz-adv-x="713" 
d="M691 103q-43 -57 -112 -89.5t-153 -32.5q-162 0 -265.5 105t-103.5 269q0 163 105.5 267.5t266.5 104.5q73 0 141 -27.5t107 -77.5l-59 -47q-30 39 -82 62t-107 23q-129 0 -209.5 -88.5t-80.5 -216.5q0 -131 79.5 -218.5t208.5 -87.5q62 0 116 25t88 71zM566 908
l-129 -144h-59l100 144h88z" />
    <glyph glyph-name="cacute" unicode="&#x107;" horiz-adv-x="509" 
d="M477 406l-48 -38q-55 59 -128 59q-77 0 -125 -56t-48 -135q0 -77 48 -132.5t126 -55.5q44 0 81.5 20t58.5 44l45 -44q-75 -81 -187 -81q-108 0 -177 71.5t-69 177.5q0 107 70.5 179t177.5 72q113 0 175 -81zM435 708l-129 -144h-59l101 144h87z" />
    <glyph glyph-name="Ccircumflex" unicode="&#x108;" horiz-adv-x="713" 
d="M691 103q-43 -57 -112 -89.5t-153 -32.5q-162 0 -265.5 105t-103.5 269q0 163 105.5 267.5t266.5 104.5q73 0 141 -27.5t107 -77.5l-59 -47q-30 39 -82 62t-107 23q-129 0 -209.5 -88.5t-80.5 -216.5q0 -131 79.5 -218.5t208.5 -87.5q62 0 116 25t88 71zM358 908h84
l110 -144h-71l-81 109l-81 -109h-70z" />
    <glyph glyph-name="ccircumflex" unicode="&#x109;" horiz-adv-x="509" 
d="M477 406l-48 -38q-55 59 -128 59q-77 0 -125 -56t-48 -135q0 -77 48 -132.5t126 -55.5q44 0 81.5 20t58.5 44l45 -44q-75 -81 -187 -81q-108 0 -177 71.5t-69 177.5q0 107 70.5 179t177.5 72q113 0 175 -81zM247 708h84l110 -144h-71l-81 109l-81 -109h-70z" />
    <glyph glyph-name="Cdotaccent" unicode="&#x10a;" horiz-adv-x="713" 
d="M691 103q-43 -57 -112 -89.5t-153 -32.5q-162 0 -265.5 105t-103.5 269q0 163 105.5 267.5t266.5 104.5q73 0 141 -27.5t107 -77.5l-59 -47q-30 39 -82 62t-107 23q-129 0 -209.5 -88.5t-80.5 -216.5q0 -131 79.5 -218.5t208.5 -87.5q62 0 116 25t88 71zM410 800
q-20 0 -35 14.5t-15 34.5q0 21 15 36t35 15q21 0 36 -14.5t15 -36.5q0 -21 -15 -35t-36 -14z" />
    <glyph glyph-name="cdotaccent" unicode="&#x10b;" horiz-adv-x="509" 
d="M477 406l-48 -38q-55 59 -128 59q-77 0 -125 -56t-48 -135q0 -77 48 -132.5t126 -55.5q44 0 81.5 20t58.5 44l45 -44q-75 -81 -187 -81q-108 0 -177 71.5t-69 177.5q0 107 70.5 179t177.5 72q113 0 175 -81zM292 599q-20 0 -35 14.5t-15 35.5t15 35.5t35 14.5
q21 0 36 -14.5t15 -35.5t-15 -35.5t-36 -14.5z" />
    <glyph glyph-name="Ccaron" unicode="&#x10c;" horiz-adv-x="713" 
d="M691 103q-43 -57 -112 -89.5t-153 -32.5q-162 0 -265.5 105t-103.5 269q0 163 105.5 267.5t266.5 104.5q73 0 141 -27.5t107 -77.5l-59 -47q-30 39 -82 62t-107 23q-129 0 -209.5 -88.5t-80.5 -216.5q0 -131 79.5 -218.5t208.5 -87.5q62 0 116 25t88 71zM455 764h-84
l-108 144h70l81 -109l82 109h68z" />
    <glyph glyph-name="ccaron" unicode="&#x10d;" horiz-adv-x="509" 
d="M477 406l-48 -38q-55 59 -128 59q-77 0 -125 -56t-48 -135q0 -77 48 -132.5t126 -55.5q44 0 81.5 20t58.5 44l45 -44q-75 -81 -187 -81q-108 0 -177 71.5t-69 177.5q0 107 70.5 179t177.5 72q113 0 175 -81zM326 564h-84l-108 144h70l81 -109l82 109h68z" />
    <glyph glyph-name="Dcaron" unicode="&#x10e;" horiz-adv-x="764" 
d="M707 354q0 -88 -32.5 -157.5t-88 -111.5t-123 -63.5t-141.5 -21.5h-230v708h230q75 0 142 -21t122.5 -62t88 -111t32.5 -160zM307 642h-139v-575h139q142 0 230.5 75t88.5 212q0 140 -88.5 214t-230.5 74zM420 764h-84l-108 144h70l81 -109l82 109h68z" />
    <glyph glyph-name="dcaron" unicode="&#x10f;" horiz-adv-x="658" 
d="M471 385v371h73v-756h-71v91h-2q-27 -49 -76.5 -76.5t-105.5 -27.5q-105 0 -170.5 72t-65.5 178t66 178t169 72q58 0 106 -28t75 -74h2zM128 237q0 -78 46.5 -133.5t125.5 -55.5q76 0 126 55.5t50 133.5q0 77 -50 133.5t-126 56.5q-79 0 -125.5 -56t-46.5 -134zM714 708
l-78 -190h-61l65 190h74z" />
    <glyph glyph-name="Dcroat" unicode="&#x110;" horiz-adv-x="764" 
d="M92 342h-75v55h75v311h230q75 0 142 -21t122.5 -62t88 -111t32.5 -160q0 -88 -32.5 -157.5t-88 -111.5t-123 -63.5t-141.5 -21.5h-230v342zM168 397h244v-55h-244v-275h139q142 0 230.5 75t88.5 212q0 140 -88.5 214t-230.5 74h-139v-245z" />
    <glyph glyph-name="dcroat" unicode="&#x111;" horiz-adv-x="632" 
d="M471 385v219h-218v53h218v99h73v-99h60v-53h-60v-604h-71v91h-2q-27 -49 -76.5 -76.5t-105.5 -27.5q-105 0 -170.5 72t-65.5 178t66 178t169 72q58 0 106 -28t75 -74h2zM128 237q0 -78 46.5 -133.5t125.5 -55.5q76 0 126 55.5t50 133.5q0 77 -50 133.5t-126 56.5
q-79 0 -125.5 -56t-46.5 -134z" />
    <glyph glyph-name="Emacron" unicode="&#x112;" horiz-adv-x="618" 
d="M572 0h-480v708h470v-67h-394v-246h328v-65h-328v-262h404v-68zM472 804h-277v53h277v-53z" />
    <glyph glyph-name="emacron" unicode="&#x113;" horiz-adv-x="567" 
d="M512 218h-387q5 -76 51.5 -123t123.5 -47q97 0 157 77l47 -39q-32 -44 -88 -71.5t-124 -27.5q-103 0 -170.5 68t-67.5 173q0 108 68.5 183.5t171.5 75.5q69 0 121 -35.5t75.5 -86t23.5 -106.5q0 -15 -2 -41zM447 272q-1 65 -46 110t-111 45q-69 0 -113 -47t-51 -108h321z
M423 604h-277v53h277v-53z" />
    <glyph glyph-name="Ebreve" unicode="&#x114;" horiz-adv-x="618" 
d="M572 0h-480v708h470v-67h-394v-246h328v-65h-328v-262h404v-68zM482 905q-7 -65 -47 -99.5t-102 -34.5q-63 0 -103 34.5t-46 99.5h45q7 -40 35.5 -61t68.5 -21q87 0 105 82h44z" />
    <glyph glyph-name="ebreve" unicode="&#x115;" horiz-adv-x="567" 
d="M512 218h-387q5 -76 51.5 -123t123.5 -47q97 0 157 77l47 -39q-32 -44 -88 -71.5t-124 -27.5q-103 0 -170.5 68t-67.5 173q0 108 68.5 183.5t171.5 75.5q69 0 121 -35.5t75.5 -86t23.5 -106.5q0 -15 -2 -41zM447 272q-1 65 -46 110t-111 45q-69 0 -113 -47t-51 -108h321z
M433 705q-7 -65 -47 -99.5t-102 -34.5q-63 0 -103 34.5t-46 99.5h45q7 -40 35.5 -61t68.5 -21q87 0 105 82h44z" />
    <glyph glyph-name="Edotaccent" unicode="&#x116;" horiz-adv-x="618" 
d="M572 0h-480v708h470v-67h-394v-246h328v-65h-328v-262h404v-68zM333 800q-20 0 -35 14.5t-15 34.5q0 21 15 36t35 15q21 0 36 -14.5t15 -36.5q0 -21 -15 -35t-36 -14z" />
    <glyph glyph-name="edotaccent" unicode="&#x117;" horiz-adv-x="567" 
d="M512 218h-387q5 -76 51.5 -123t123.5 -47q97 0 157 77l47 -39q-32 -44 -88 -71.5t-124 -27.5q-103 0 -170.5 68t-67.5 173q0 108 68.5 183.5t171.5 75.5q69 0 121 -35.5t75.5 -86t23.5 -106.5q0 -15 -2 -41zM447 272q-1 65 -46 110t-111 45q-69 0 -113 -47t-51 -108h321z
M293 599q-20 0 -35 14.5t-15 35.5t15 35.5t35 14.5q21 0 36 -14.5t15 -35.5t-15 -35.5t-36 -14.5z" />
    <glyph glyph-name="Eogonek" unicode="&#x118;" horiz-adv-x="618" 
d="M567 -148l18 -42q-42 -35 -91 -35q-38 0 -65.5 23.5t-27.5 61.5q0 65 89 140h-398v708h470v-67h-394v-246h328v-65h-328v-262h404v-68h-37q-74 -72 -74 -123q0 -23 13 -35.5t36 -12.5q30 0 57 23z" />
    <glyph glyph-name="eogonek" unicode="&#x119;" horiz-adv-x="567" 
d="M504 -148l18 -42q-42 -35 -91 -35q-38 0 -65.5 23.5t-27.5 61.5q0 60 53 144q-51 -17 -99 -17q-103 0 -170.5 68t-67.5 173q0 108 68.5 183.5t171.5 75.5q69 0 121 -35.5t75.5 -86t23.5 -106.5q0 -15 -2 -41h-387q5 -76 51.5 -123t123.5 -47q97 0 157 77l47 -39
q-8 -10 -27 -32q-31 -32 -55 -87.5t-24 -89.5q0 -23 13 -35.5t36 -12.5q30 0 57 23zM447 272q-1 65 -46 110t-111 45q-69 0 -113 -47t-51 -108h321z" />
    <glyph glyph-name="Ecaron" unicode="&#x11a;" horiz-adv-x="618" 
d="M572 0h-480v708h470v-67h-394v-246h328v-65h-328v-262h404v-68zM372 764h-84l-108 144h70l81 -109l82 109h68z" />
    <glyph glyph-name="ecaron" unicode="&#x11b;" horiz-adv-x="567" 
d="M512 218h-387q5 -76 51.5 -123t123.5 -47q97 0 157 77l47 -39q-32 -44 -88 -71.5t-124 -27.5q-103 0 -170.5 68t-67.5 173q0 108 68.5 183.5t171.5 75.5q69 0 121 -35.5t75.5 -86t23.5 -106.5q0 -15 -2 -41zM447 272q-1 65 -46 110t-111 45q-69 0 -113 -47t-51 -108h321z
M326 564h-84l-108 144h70l81 -109l82 109h68z" />
    <glyph glyph-name="Gcircumflex" unicode="&#x11c;" horiz-adv-x="783" 
d="M695 43q-114 -62 -262 -62q-166 0 -271 105.5t-105 268.5q0 164 105.5 268t268.5 104q158 0 255 -89l-53 -56q-35 36 -88.5 57t-112.5 21q-131 0 -212 -88t-81 -217q0 -131 81 -218t216 -87q108 0 185 40v221h-166v65h240v-333zM367 908h84l110 -144h-71l-81 109
l-81 -109h-70z" />
    <glyph glyph-name="gcircumflex" unicode="&#x11d;" horiz-adv-x="630" 
d="M471 20v74h-2q-26 -47 -74.5 -74t-104.5 -27q-105 0 -170.5 70.5t-65.5 174.5q0 105 65.5 177t169.5 72q57 0 106 -27.5t76 -78.5h2v93h71v-449q0 -56 -13 -102t-41.5 -84.5t-79 -60t-118.5 -21.5q-63 0 -122.5 23t-100.5 63l46 56q70 -79 178 -79q178 0 178 200z
M128 240q0 -76 47.5 -131t124.5 -55t126.5 54t49.5 132q0 77 -50 132t-126 55q-78 0 -125 -54.5t-47 -132.5zM272 708h84l110 -144h-71l-81 109l-81 -109h-70z" />
    <glyph glyph-name="Gbreve" unicode="&#x11e;" horiz-adv-x="783" 
d="M695 43q-114 -62 -262 -62q-166 0 -271 105.5t-105 268.5q0 164 105.5 268t268.5 104q158 0 255 -89l-53 -56q-35 36 -88.5 57t-112.5 21q-131 0 -212 -88t-81 -217q0 -131 81 -218t216 -87q108 0 185 40v221h-166v65h240v-333zM570 905q-7 -65 -47 -99.5t-102 -34.5
q-63 0 -103 34.5t-46 99.5h45q7 -40 35.5 -61t68.5 -21q87 0 105 82h44z" />
    <glyph glyph-name="gbreve" unicode="&#x11f;" horiz-adv-x="630" 
d="M471 20v74h-2q-26 -47 -74.5 -74t-104.5 -27q-105 0 -170.5 70.5t-65.5 174.5q0 105 65.5 177t169.5 72q57 0 106 -27.5t76 -78.5h2v93h71v-449q0 -56 -13 -102t-41.5 -84.5t-79 -60t-118.5 -21.5q-63 0 -122.5 23t-100.5 63l46 56q70 -79 178 -79q178 0 178 200z
M128 240q0 -76 47.5 -131t124.5 -55t126.5 54t49.5 132q0 77 -50 132t-126 55q-78 0 -125 -54.5t-47 -132.5zM463 705q-7 -65 -47 -99.5t-102 -34.5q-63 0 -103 34.5t-46 99.5h45q7 -40 35.5 -61t68.5 -21q87 0 105 82h44z" />
    <glyph glyph-name="Gdotaccent" unicode="&#x120;" horiz-adv-x="783" 
d="M695 43q-114 -62 -262 -62q-166 0 -271 105.5t-105 268.5q0 164 105.5 268t268.5 104q158 0 255 -89l-53 -56q-35 36 -88.5 57t-112.5 21q-131 0 -212 -88t-81 -217q0 -131 81 -218t216 -87q108 0 185 40v221h-166v65h240v-333zM417 800q-20 0 -35 14.5t-15 34.5
q0 21 15 36t35 15q21 0 36 -14.5t15 -36.5q0 -21 -15 -35t-36 -14z" />
    <glyph glyph-name="gdotaccent" unicode="&#x121;" horiz-adv-x="630" 
d="M471 20v74h-2q-26 -47 -74.5 -74t-104.5 -27q-105 0 -170.5 70.5t-65.5 174.5q0 105 65.5 177t169.5 72q57 0 106 -27.5t76 -78.5h2v93h71v-449q0 -56 -13 -102t-41.5 -84.5t-79 -60t-118.5 -21.5q-63 0 -122.5 23t-100.5 63l46 56q70 -79 178 -79q178 0 178 200z
M128 240q0 -76 47.5 -131t124.5 -55t126.5 54t49.5 132q0 77 -50 132t-126 55q-78 0 -125 -54.5t-47 -132.5zM313 599q-20 0 -35 14.5t-15 35.5t15 35.5t35 14.5q21 0 36 -14.5t15 -35.5t-15 -35.5t-36 -14.5z" />
    <glyph glyph-name="Gcommaaccent" unicode="&#x122;" horiz-adv-x="783" 
d="M695 43q-114 -62 -262 -62q-166 0 -271 105.5t-105 268.5q0 164 105.5 268t268.5 104q158 0 255 -89l-53 -56q-35 36 -88.5 57t-112.5 21q-131 0 -212 -88t-81 -217q0 -131 81 -218t216 -87q108 0 185 40v221h-166v65h240v-333zM371 -239l-39 19q37 67 42 86
q-25 16 -25 44q0 20 12.5 33t32.5 13q18 0 31.5 -11.5t13.5 -36.5q0 -46 -68 -147z" />
    <glyph glyph-name="gcommaaccent" unicode="&#x123;" horiz-adv-x="630" 
d="M471 20v74h-2q-26 -47 -74.5 -74t-104.5 -27q-105 0 -170.5 70.5t-65.5 174.5q0 105 65.5 177t169.5 72q57 0 106 -27.5t76 -78.5h2v93h71v-449q0 -56 -13 -102t-41.5 -84.5t-79 -60t-118.5 -21.5q-63 0 -122.5 23t-100.5 63l46 56q70 -79 178 -79q178 0 178 200z
M128 240q0 -76 47.5 -131t124.5 -55t126.5 54t49.5 132q0 77 -50 132t-126 55q-78 0 -125 -54.5t-47 -132.5zM337 726l39 -19q-37 -67 -42 -86q25 -16 25 -44q0 -20 -12.5 -33t-32.5 -13q-18 0 -31.5 11.5t-13.5 36.5q0 46 68 147z" />
    <glyph glyph-name="Hcircumflex" unicode="&#x124;" horiz-adv-x="746" 
d="M654 0h-77v329h-409v-329h-76v708h76v-311h409v311h77v-708zM332 908h84l110 -144h-71l-81 109l-81 -109h-70z" />
    <glyph glyph-name="hcircumflex" unicode="&#x125;" horiz-adv-x="600" 
d="M160 383h3q19 44 65 74t104 30q94 0 138.5 -60.5t44.5 -155.5v-271h-72v270q0 67 -30 112.5t-96 45.5q-69 0 -113 -52t-44 -135v-241h-73v756h73v-373zM81 928h84l110 -144h-71l-81 109l-81 -109h-70z" />
    <glyph glyph-name="Hbar" unicode="&#x126;" horiz-adv-x="746" 
d="M654 0h-77v329h-409v-329h-76v537h-60v53h60v118h76v-118h409v118h77v-118h63v-53h-63v-537zM168 397h409v140h-409v-140z" />
    <glyph glyph-name="hbar" unicode="&#x127;" horiz-adv-x="600" 
d="M160 383h3q19 44 65 74t104 30q94 0 138.5 -60.5t44.5 -155.5v-271h-72v270q0 67 -30 112.5t-96 45.5q-69 0 -113 -52t-44 -135v-241h-73v604h-66v53h66v99h73v-99h212v-53h-212v-221z" />
    <glyph glyph-name="Itilde" unicode="&#x128;" horiz-adv-x="260" 
d="M168 0h-76v708h76v-708zM133 859q43 -22 65 -22q34 0 45 46h43q-17 -101 -88 -101q-34 0 -73 22q-40 22 -64 22q-35 0 -44 -48h-44q17 102 88 102q32 0 72 -21z" />
    <glyph glyph-name="itilde" unicode="&#x129;" horiz-adv-x="248" 
d="M161 0h-72v474h72v-474zM130 659q44 -23 65 -23q34 0 45 47h43q-17 -101 -88 -101q-34 0 -73 22q-38 21 -64 21q-35 0 -44 -47h-44q17 102 88 102q32 0 72 -21z" />
    <glyph glyph-name="Imacron" unicode="&#x12a;" horiz-adv-x="260" 
d="M168 0h-76v708h76v-708zM268 804h-277v53h277v-53z" />
    <glyph glyph-name="imacron" unicode="&#x12b;" horiz-adv-x="248" 
d="M161 0h-72v474h72v-474zM265 604h-277v53h277v-53z" />
    <glyph glyph-name="Ibreve" unicode="&#x12c;" horiz-adv-x="260" 
d="M168 0h-76v708h76v-708zM278 905q-7 -65 -47 -99.5t-102 -34.5q-63 0 -103 34.5t-46 99.5h45q7 -40 35.5 -61t68.5 -21q87 0 105 82h44z" />
    <glyph glyph-name="ibreve" unicode="&#x12d;" horiz-adv-x="248" 
d="M161 0h-72v474h72v-474zM275 705q-7 -65 -47 -99.5t-102 -34.5q-63 0 -103 34.5t-46 99.5h45q7 -40 35.5 -61t68.5 -21q87 0 105 82h44z" />
    <glyph glyph-name="Iogonek" unicode="&#x12e;" horiz-adv-x="260" 
d="M170 -148l18 -42q-42 -35 -91 -35q-38 0 -65.5 23.5t-27.5 61.5q0 65 89 140h-1v708h76v-708h-30q-74 -72 -74 -123q0 -23 13 -35.5t36 -12.5q30 0 57 23z" />
    <glyph glyph-name="iogonek" unicode="&#x12f;" horiz-adv-x="248" 
d="M166 -148l18 -42q-42 -35 -91 -35q-38 0 -65.5 23.5t-27.5 61.5q0 65 89 140h-1v474h72v-474h-26q-74 -72 -74 -123q0 -23 13 -35.5t36 -12.5q30 0 57 23zM124 610q-21 0 -35 14t-14 36t14 37t35 15q22 0 36.5 -15t14.5 -37t-14.5 -36t-36.5 -14z" />
    <glyph glyph-name="Idotaccent" unicode="&#x130;" horiz-adv-x="260" 
d="M168 0h-76v708h76v-708zM129 800q-20 0 -35 14.5t-15 34.5q0 21 15 36t35 15q21 0 36 -14.5t15 -36.5q0 -21 -15 -35t-36 -14z" />
    <glyph glyph-name="dotlessi" unicode="&#x131;" horiz-adv-x="248" 
d="M160 0h-72v474h72v-474z" />
    <glyph glyph-name="IJ" unicode="&#x132;" horiz-adv-x="710" 
d="M168 0h-76v708h76v-708zM623 169q0 -84 -44.5 -135.5t-122.5 -51.5q-84 0 -124 50.5t-40 155.5h72q0 -73 21.5 -105.5t71.5 -32.5q31 0 50 13t27.5 41t10.5 53t2 67v484h76v-539z" />
    <glyph glyph-name="ij" unicode="&#x133;" horiz-adv-x="429" 
d="M124 610q-21 0 -35 14t-14 36t14 37t35 15q22 0 36.5 -15t14.5 -37t-14.5 -36t-36.5 -14zM160 0h-72v474h72v-474zM408 474v-558q0 -47 -12.5 -79.5t-35.5 -48t-48.5 -22t-57.5 -6.5h-28v60h17q54 0 74 28.5t20 96.5v529h71zM372 610q-21 0 -35 14t-14 36t14 37t35 15
q22 0 36.5 -15t14.5 -37t-14.5 -36t-36.5 -14z" />
    <glyph glyph-name="Jcircumflex" unicode="&#x134;" horiz-adv-x="450" 
d="M363 169q0 -84 -44.5 -135.5t-122.5 -51.5q-84 0 -124 50.5t-40 155.5h72q0 -73 21.5 -105.5t71.5 -32.5q31 0 50 13t27.5 41t10.5 53t2 67v484h76v-539zM283 908h84l110 -144h-71l-81 109l-81 -109h-70z" />
    <glyph glyph-name="jcircumflex" unicode="&#x135;" horiz-adv-x="248" 
d="M160 -84q0 -47 -12.5 -79.5t-35.5 -48t-48.5 -22t-57.5 -6.5h-28v60h17q54 0 74 28.5t20 96.5v529h71v-558zM82 708h84l110 -144h-71l-81 109l-81 -109h-70z" />
    <glyph glyph-name="Kcommaaccent" unicode="&#x136;" horiz-adv-x="649" 
d="M552 0l-246 351l-138 -152v-199h-76v708h76v-417l363 417h98l-271 -301l289 -407h-95zM311 -239l-39 19q37 67 42 86q-25 16 -25 44q0 20 12.5 33t32.5 13q18 0 31.5 -11.5t13.5 -36.5q0 -46 -68 -147z" />
    <glyph glyph-name="kcommaaccent" unicode="&#x137;" horiz-adv-x="502" 
d="M400 0l-158 252l-81 -79v-173h-72v756h72v-502h2l211 220h98l-178 -176l199 -298h-93zM245 -239l-39 19q37 67 42 86q-25 16 -25 44q0 20 12.5 33t32.5 13q18 0 31.5 -11.5t13.5 -36.5q0 -46 -68 -147z" />
    <glyph glyph-name="kgreenlandic" unicode="&#x138;" horiz-adv-x="502" 
d="M89 474h72v-231h2l215 231h94l-178 -184l199 -290h-93l-158 243l-81 -80v-163h-72v474z" />
    <glyph glyph-name="Lacute" unicode="&#x139;" horiz-adv-x="507" 
d="M495 0h-403v708h76v-640h327v-68zM297 908l-129 -144h-59l100 144h88z" />
    <glyph glyph-name="lacute" unicode="&#x13a;" horiz-adv-x="250" 
d="M161 0h-72v756h72v-756zM282 928l-129 -144h-59l101 144h87z" />
    <glyph glyph-name="Lcommaaccent" unicode="&#x13b;" horiz-adv-x="507" 
d="M495 0h-403v708h76v-640h327v-68zM237 -239l-39 19q37 67 42 86q-25 16 -25 44q0 20 12.5 33t32.5 13q18 0 31.5 -11.5t13.5 -36.5q0 -46 -68 -147z" />
    <glyph glyph-name="lcommaaccent" unicode="&#x13c;" horiz-adv-x="250" 
d="M161 0h-72v756h72v-756zM107 -239l-39 19q37 67 42 86q-25 16 -25 44q0 20 12.5 33t32.5 13q18 0 31.5 -11.5t13.5 -36.5q0 -46 -68 -147z" />
    <glyph glyph-name="Lcaron" unicode="&#x13d;" horiz-adv-x="507" 
d="M495 0h-403v708h76v-640h327v-68zM359 708l-78 -190h-61l65 190h74z" />
    <glyph glyph-name="lcaron" unicode="&#x13e;" horiz-adv-x="269" 
d="M161 0h-72v756h72v-756zM325 708l-78 -190h-61l65 190h74z" />
    <glyph glyph-name="Ldot" unicode="&#x13f;" horiz-adv-x="507" 
d="M495 0h-403v708h76v-640h327v-68zM382 293q-23 0 -39 15.5t-16 37.5t16 38t39 16q22 0 37.5 -15.5t15.5 -37.5q0 -23 -15.5 -38.5t-37.5 -15.5z" />
    <glyph glyph-name="ldot" unicode="&#x140;" horiz-adv-x="315" 
d="M161 0h-72v756h72v-756zM268 249q-23 0 -39 15.5t-16 37.5t16 38t39 16q22 0 37.5 -15.5t15.5 -37.5q0 -23 -15.5 -38.5t-37.5 -15.5z" />
    <glyph glyph-name="Lslash" unicode="&#x141;" horiz-adv-x="507" 
d="M92 232l-73 -64v72l73 63v405h76v-348l210 185v-71l-210 -185v-221h327v-68h-403v232z" />
    <glyph glyph-name="lslash" unicode="&#x142;" horiz-adv-x="250" 
d="M90 328l-72 -71v73l72 70v356h72v-298l74 72v-70l-74 -73v-387h-72v328z" />
    <glyph glyph-name="Nacute" unicode="&#x143;" horiz-adv-x="755" 
d="M663 0h-77l-420 586h-1v-586h-73v708h76l421 -587v587h74v-708zM505 908l-129 -144h-59l100 144h88z" />
    <glyph glyph-name="nacute" unicode="&#x144;" horiz-adv-x="603" 
d="M162 383q19 45 66 74.5t107 29.5q96 0 139.5 -59.5t43.5 -160.5v-267h-73v273q0 65 -30.5 110t-95.5 45q-70 0 -114 -52t-44 -135v-241h-73v474h71v-91h3zM433 708l-129 -144h-59l101 144h87z" />
    <glyph glyph-name="Ncommaaccent" unicode="&#x145;" horiz-adv-x="755" 
d="M663 0h-77l-420 586h-1v-586h-73v708h76l421 -587v587h74v-708zM354 -239l-39 19q37 67 42 86q-25 16 -25 44q0 20 12.5 33t32.5 13q18 0 31.5 -11.5t13.5 -36.5q0 -46 -68 -147z" />
    <glyph glyph-name="ncommaaccent" unicode="&#x146;" horiz-adv-x="603" 
d="M162 383q19 45 66 74.5t107 29.5q96 0 139.5 -59.5t43.5 -160.5v-267h-73v273q0 65 -30.5 110t-95.5 45q-70 0 -114 -52t-44 -135v-241h-73v474h71v-91h3zM289 -239l-39 19q37 67 42 86q-25 16 -25 44q0 20 12.5 33t32.5 13q18 0 31.5 -11.5t13.5 -36.5q0 -46 -68 -147z
" />
    <glyph glyph-name="Ncaron" unicode="&#x147;" horiz-adv-x="755" 
d="M663 0h-77l-420 586h-1v-586h-73v708h76l421 -587v587h74v-708zM412 764h-84l-108 144h70l81 -109l82 109h68z" />
    <glyph glyph-name="ncaron" unicode="&#x148;" horiz-adv-x="603" 
d="M162 383q19 45 66 74.5t107 29.5q96 0 139.5 -59.5t43.5 -160.5v-267h-73v273q0 65 -30.5 110t-95.5 45q-70 0 -114 -52t-44 -135v-241h-73v474h71v-91h3zM347 564h-84l-108 144h70l81 -109l82 109h68z" />
    <glyph glyph-name="napostrophe" unicode="&#x149;" horiz-adv-x="603" 
d="M162 383q19 45 66 74.5t107 29.5q96 0 139.5 -59.5t43.5 -160.5v-267h-73v273q0 65 -30.5 110t-95.5 45q-70 0 -114 -52t-44 -135v-241h-73v474h71v-91h3zM117 531l-39 19q37 67 42 86q-25 16 -25 44q0 20 12.5 33t32.5 13q18 0 31.5 -11.5t13.5 -36.5q0 -46 -68 -147z
" />
    <glyph glyph-name="Eng" unicode="&#x14a;" horiz-adv-x="755" 
d="M663 -84q0 -89 -42.5 -122.5t-111.5 -33.5h-29v60h17q52 0 72.5 23.5t20.5 85.5v65l-424 592h-1v-586h-73v708h76l420 -587h1v587h74v-792z" />
    <glyph glyph-name="eng" unicode="&#x14b;" horiz-adv-x="603" 
d="M518 257v-341q0 -91 -43 -123.5t-115 -32.5h-25v60h17q55 0 74 29t19 97v327q0 65 -30.5 110t-95.5 45q-81 0 -119.5 -59.5t-38.5 -161.5v-207h-73v474h71v-91h3q19 45 66 74.5t107 29.5q97 0 140 -63.5t43 -166.5z" />
    <glyph glyph-name="Omacron" unicode="&#x14c;" horiz-adv-x="856" 
d="M800 355q0 -163 -106 -268.5t-266 -105.5q-161 0 -266 105.5t-105 268.5q0 164 105 268t266 104q162 0 267 -104t105 -268zM718 355q0 128 -81 216.5t-209 88.5t-209 -88.5t-81 -216.5q0 -130 80.5 -217.5t209.5 -87.5q130 0 210 87.5t80 217.5zM561 804h-277v53h277v-53
z" />
    <glyph glyph-name="omacron" unicode="&#x14d;" horiz-adv-x="609" 
d="M556 238q0 -108 -72 -179.5t-180 -71.5t-179 71t-71 180q0 108 71 178.5t179 70.5t180 -70.5t72 -178.5zM480 238q0 79 -47.5 134t-128.5 55q-80 0 -128 -55t-48 -134t48 -134.5t128 -55.5q81 0 128.5 55.5t47.5 134.5zM442 604h-277v53h277v-53z" />
    <glyph glyph-name="Obreve" unicode="&#x14e;" horiz-adv-x="856" 
d="M800 355q0 -163 -106 -268.5t-266 -105.5q-161 0 -266 105.5t-105 268.5q0 164 105 268t266 104q162 0 267 -104t105 -268zM718 355q0 128 -81 216.5t-209 88.5t-209 -88.5t-81 -216.5q0 -130 80.5 -217.5t209.5 -87.5q130 0 210 87.5t80 217.5zM571 905
q-7 -65 -47 -99.5t-102 -34.5q-63 0 -103 34.5t-46 99.5h45q7 -40 35.5 -61t68.5 -21q87 0 105 82h44z" />
    <glyph glyph-name="obreve" unicode="&#x14f;" horiz-adv-x="609" 
d="M556 238q0 -108 -72 -179.5t-180 -71.5t-179 71t-71 180q0 108 71 178.5t179 70.5t180 -70.5t72 -178.5zM480 238q0 79 -47.5 134t-128.5 55q-80 0 -128 -55t-48 -134t48 -134.5t128 -55.5q81 0 128.5 55.5t47.5 134.5zM452 705q-7 -65 -47 -99.5t-102 -34.5
q-63 0 -103 34.5t-46 99.5h45q7 -40 35.5 -61t68.5 -21q87 0 105 82h44z" />
    <glyph glyph-name="Ohungarumlaut" unicode="&#x150;" horiz-adv-x="856" 
d="M800 355q0 -163 -106 -268.5t-266 -105.5q-161 0 -266 105.5t-105 268.5q0 164 105 268t266 104q162 0 267 -104t105 -268zM718 355q0 128 -81 216.5t-209 88.5t-209 -88.5t-81 -216.5q0 -130 80.5 -217.5t209.5 -87.5q130 0 210 87.5t80 217.5zM667 908l-129 -144h-59
l101 144h87zM525 908l-130 -144h-59l101 144h88z" />
    <glyph glyph-name="ohungarumlaut" unicode="&#x151;" horiz-adv-x="609" 
d="M556 238q0 -108 -72 -179.5t-180 -71.5t-179 71t-71 180q0 108 71 178.5t179 70.5t180 -70.5t72 -178.5zM480 238q0 79 -47.5 134t-128.5 55q-80 0 -128 -55t-48 -134t48 -134.5t128 -55.5q81 0 128.5 55.5t47.5 134.5zM517 708l-129 -144h-59l101 144h87zM375 708
l-130 -144h-59l101 144h88z" />
    <glyph glyph-name="OE" unicode="&#x152;" horiz-adv-x="1249" 
d="M1203 0h-486v139h-2q-42 -74 -116.5 -116t-170.5 -42q-161 0 -266 105.5t-105 268.5q0 164 105 268t266 104q96 0 169.5 -41t116.5 -115h3v137h477v-67h-402v-246h336v-65h-336v-262h411v-68zM718 355q0 128 -81 216.5t-209 88.5t-209 -88.5t-81 -216.5
q0 -130 80.5 -217.5t209.5 -87.5q130 0 210 87.5t80 217.5z" />
    <glyph glyph-name="oe" unicode="&#x153;" horiz-adv-x="991" 
d="M514 360h2q30 57 83 90t119 33q103 0 161 -68.5t58 -156.5q0 -28 -1 -41h-387q5 -76 51.5 -122.5t123.5 -46.5q97 0 157 77l47 -39q-32 -44 -88 -71.5t-124 -27.5q-67 0 -120.5 31.5t-82.5 86.5h-3q-29 -55 -82.5 -86.5t-123.5 -31.5q-108 0 -179 70.5t-71 178.5
t71 177.5t179 69.5q71 0 126 -33t84 -90zM871 271q-1 65 -45.5 108.5t-111.5 43.5q-69 0 -113 -45.5t-51 -106.5h321zM480 236q0 78 -47.5 132.5t-128.5 54.5q-80 0 -128 -54.5t-48 -132.5t48 -133t128 -55q81 0 128.5 54.5t47.5 133.5z" />
    <glyph glyph-name="Racute" unicode="&#x154;" horiz-adv-x="654" 
d="M621 0h-94l-191 294h-168v-294h-76v708h265q113 0 176 -54t63 -148q0 -87 -54 -139.5t-124 -61.5zM520 503q0 69 -46 103.5t-131 34.5h-175v-282h177q87 0 131 39t44 105zM465 908l-129 -144h-59l100 144h88z" />
    <glyph glyph-name="racute" unicode="&#x155;" horiz-adv-x="348" 
d="M159 381q19 50 59.5 78t90.5 28q16 0 31 -3v-67q-20 4 -37 4q-69 0 -105.5 -50.5t-36.5 -120.5v-250h-73v474h69v-93h2zM287 708l-129 -144h-59l101 144h87z" />
    <glyph glyph-name="Rcommaaccent" unicode="&#x156;" horiz-adv-x="654" 
d="M621 0h-94l-191 294h-168v-294h-76v708h265q113 0 176 -54t63 -148q0 -87 -54 -139.5t-124 -61.5zM520 503q0 69 -46 103.5t-131 34.5h-175v-282h177q87 0 131 39t44 105zM326 -239l-39 19q37 67 42 86q-25 16 -25 44q0 20 12.5 33t32.5 13q18 0 31.5 -11.5t13.5 -36.5
q0 -46 -68 -147z" />
    <glyph glyph-name="rcommaaccent" unicode="&#x157;" horiz-adv-x="348" 
d="M159 381q19 50 59.5 78t90.5 28q16 0 31 -3v-67q-20 4 -37 4q-69 0 -105.5 -50.5t-36.5 -120.5v-250h-73v474h69v-93h2zM108 -239l-39 19q37 67 42 86q-25 16 -25 44q0 20 12.5 33t32.5 13q18 0 31.5 -11.5t13.5 -36.5q0 -46 -68 -147z" />
    <glyph glyph-name="Rcaron" unicode="&#x158;" horiz-adv-x="654" 
d="M621 0h-94l-191 294h-168v-294h-76v708h265q113 0 176 -54t63 -148q0 -87 -54 -139.5t-124 -61.5zM520 503q0 69 -46 103.5t-131 34.5h-175v-282h177q87 0 131 39t44 105zM384 764h-84l-108 144h70l81 -109l82 109h68z" />
    <glyph glyph-name="rcaron" unicode="&#x159;" horiz-adv-x="348" 
d="M159 381q19 50 59.5 78t90.5 28q16 0 31 -3v-67q-20 4 -37 4q-69 0 -105.5 -50.5t-36.5 -120.5v-250h-73v474h69v-93h2zM221 564h-84l-108 144h70l81 -109l82 109h68z" />
    <glyph glyph-name="Sacute" unicode="&#x15a;" horiz-adv-x="571" 
d="M510 188q0 -89 -69 -148t-169 -59q-56 0 -109 22.5t-76 41t-40 37.5l53 51q76 -84 176 -84q69 0 114 38t45 96q0 50 -36.5 79.5t-103.5 55.5q-5 2 -33 12.5t-35 13.5l-31.5 13.5t-32.5 16t-27.5 17.5t-26.5 21t-20 23.5t-17.5 28.5t-9 32.5t-4.5 38.5q0 82 61 137t157 55
q59 0 114 -23.5t89 -66.5l-50 -48q-64 71 -152 71q-67 0 -106 -33.5t-39 -84.5q0 -50 35 -78.5t101 -54.5q109 -42 140 -60q102 -58 102 -161zM435 908l-129 -144h-59l100 144h88z" />
    <glyph glyph-name="sacute" unicode="&#x15b;" horiz-adv-x="501" 
d="M456 136q0 -69 -55.5 -109t-144.5 -40q-75 0 -132 28t-89 61l54 47q77 -75 172 -75q54 0 88.5 21.5t34.5 60.5q0 17 -7.5 29.5t-18.5 20.5t-32.5 15t-38.5 11t-48 9q-28 4 -43 7q-147 28 -147 125q0 65 52.5 102.5t136.5 37.5q63 0 116.5 -21t86.5 -57l-50 -45
q-24 26 -66 44t-86 18q-49 0 -83.5 -18.5t-34.5 -54.5q0 -24 20 -40t47.5 -23.5t72.5 -14.5q96 -14 145.5 -44.5t49.5 -94.5zM391 708l-129 -144h-59l101 144h87z" />
    <glyph glyph-name="Scircumflex" unicode="&#x15c;" horiz-adv-x="571" 
d="M510 188q0 -89 -69 -148t-169 -59q-56 0 -109 22.5t-76 41t-40 37.5l53 51q76 -84 176 -84q69 0 114 38t45 96q0 50 -36.5 79.5t-103.5 55.5q-5 2 -33 12.5t-35 13.5l-31.5 13.5t-32.5 16t-27.5 17.5t-26.5 21t-20 23.5t-17.5 28.5t-9 32.5t-4.5 38.5q0 82 61 137t157 55
q59 0 114 -23.5t89 -66.5l-50 -48q-64 71 -152 71q-67 0 -106 -33.5t-39 -84.5q0 -50 35 -78.5t101 -54.5q109 -42 140 -60q102 -58 102 -161zM270 908h84l110 -144h-71l-81 109l-81 -109h-70z" />
    <glyph glyph-name="scircumflex" unicode="&#x15d;" horiz-adv-x="501" 
d="M456 136q0 -69 -55.5 -109t-144.5 -40q-75 0 -132 28t-89 61l54 47q77 -75 172 -75q54 0 88.5 21.5t34.5 60.5q0 17 -7.5 29.5t-18.5 20.5t-32.5 15t-38.5 11t-48 9q-28 4 -43 7q-147 28 -147 125q0 65 52.5 102.5t136.5 37.5q63 0 116.5 -21t86.5 -57l-50 -45
q-24 26 -66 44t-86 18q-49 0 -83.5 -18.5t-34.5 -54.5q0 -24 20 -40t47.5 -23.5t72.5 -14.5q96 -14 145.5 -44.5t49.5 -94.5zM212 708h84l110 -144h-71l-81 109l-81 -109h-70z" />
    <glyph glyph-name="Scedilla" unicode="&#x15e;" horiz-adv-x="571" 
d="M422 -145q0 -47 -37 -67.5t-85 -20.5q-54 0 -100 22l16 37q37 -17 80 -17q32 0 49.5 9.5t17.5 38.5q0 19 -17 28t-40 9q-30 0 -49 -9l-17 19l51 78q-6 -1 -19 -1q-56 0 -109 22.5t-76 41t-40 37.5l53 51q76 -84 176 -84q69 0 114 38t45 96q0 50 -36.5 79.5t-103.5 55.5
q-5 2 -33 12.5t-35 13.5l-31.5 13.5t-32.5 16t-27.5 17.5t-26.5 21t-20 23.5t-17.5 28.5t-9 32.5t-4.5 38.5q0 82 61 137t157 55q59 0 114 -23.5t89 -66.5l-50 -48q-64 71 -152 71q-67 0 -106 -33.5t-39 -84.5q0 -50 35 -78.5t101 -54.5q109 -42 140 -60q102 -58 102 -161
q0 -73 -48.5 -127t-124.5 -72l-42 -63q16 4 35 4q38 0 65 -18t27 -57z" />
    <glyph glyph-name="scedilla" unicode="&#x15f;" horiz-adv-x="501" 
d="M364 -145q0 -47 -37 -67.5t-85 -20.5q-54 0 -100 22l16 37q37 -17 80 -17q32 0 49.5 9.5t17.5 38.5q0 19 -17 28t-40 9q-30 0 -49 -9l-17 19l55 84q-69 4 -121.5 31t-80.5 57l54 47q77 -75 172 -75q54 0 88.5 21.5t34.5 60.5q0 17 -7.5 29.5t-18.5 20.5t-32.5 15
t-38.5 11t-48 9q-28 4 -43 7q-147 28 -147 125q0 65 52.5 102.5t136.5 37.5q63 0 116.5 -21t86.5 -57l-50 -45q-24 26 -66 44t-86 18q-49 0 -83.5 -18.5t-34.5 -54.5q0 -24 20 -40t47.5 -23.5t72.5 -14.5q96 -14 145.5 -44.5t49.5 -94.5q0 -65 -48.5 -104t-128.5 -44
l-42 -62q16 4 35 4q38 0 65 -18t27 -57z" />
    <glyph glyph-name="Scaron" unicode="&#x160;" horiz-adv-x="571" 
d="M510 188q0 -89 -69 -148t-169 -59q-56 0 -109 22.5t-76 41t-40 37.5l53 51q76 -84 176 -84q69 0 114 38t45 96q0 50 -36.5 79.5t-103.5 55.5q-5 2 -33 12.5t-35 13.5l-31.5 13.5t-32.5 16t-27.5 17.5t-26.5 21t-20 23.5t-17.5 28.5t-9 32.5t-4.5 38.5q0 82 61 137t157 55
q59 0 114 -23.5t89 -66.5l-50 -48q-64 71 -152 71q-67 0 -106 -33.5t-39 -84.5q0 -50 35 -78.5t101 -54.5q109 -42 140 -60q102 -58 102 -161zM354 764h-84l-108 144h70l81 -109l82 109h68z" />
    <glyph glyph-name="scaron" unicode="&#x161;" horiz-adv-x="501" 
d="M456 136q0 -69 -55.5 -109t-144.5 -40q-75 0 -132 28t-89 61l54 47q77 -75 172 -75q54 0 88.5 21.5t34.5 60.5q0 17 -7.5 29.5t-18.5 20.5t-32.5 15t-38.5 11t-48 9q-28 4 -43 7q-147 28 -147 125q0 65 52.5 102.5t136.5 37.5q63 0 116.5 -21t86.5 -57l-50 -45
q-24 26 -66 44t-86 18q-49 0 -83.5 -18.5t-34.5 -54.5q0 -24 20 -40t47.5 -23.5t72.5 -14.5q96 -14 145.5 -44.5t49.5 -94.5zM296 564h-84l-108 144h70l81 -109l82 109h68z" />
    <glyph glyph-name="Tcommaaccent" unicode="&#x162;" horiz-adv-x="560" 
d="M549 641h-231v-641h-76v641h-231v67h538v-67zM261 -239l-39 19q37 67 42 86q-25 16 -25 44q0 20 12.5 33t32.5 13q18 0 31.5 -11.5t13.5 -36.5q0 -46 -68 -147z" />
    <glyph glyph-name="tcommaaccent" unicode="&#x163;" horiz-adv-x="321" 
d="M303 0h-55q-83 0 -114.5 36.5t-31.5 130.5v247h-84v60h83v131h72v-131h128v-60h-128v-262q0 -58 22.5 -75t67.5 -17h40v-60zM146 -239l-39 19q37 67 42 86q-25 16 -25 44q0 20 12.5 33t32.5 13q18 0 31.5 -11.5t13.5 -36.5q0 -46 -68 -147z" />
    <glyph glyph-name="Tcaron" unicode="&#x164;" horiz-adv-x="560" 
d="M549 641h-231v-641h-76v641h-231v67h538v-67zM321 764h-84l-108 144h70l81 -109l82 109h68z" />
    <glyph glyph-name="tcaron" unicode="&#x165;" horiz-adv-x="321" 
d="M303 0h-55q-83 0 -114.5 36.5t-31.5 130.5v247h-84v60h83v131h72v-131h128v-60h-128v-262q0 -58 22.5 -75t67.5 -17h40v-60zM248 531l-39 19q37 67 42 86q-25 16 -25 44q0 20 12.5 33t32.5 13q18 0 31.5 -11.5t13.5 -36.5q0 -46 -68 -147z" />
    <glyph glyph-name="Tbar" unicode="&#x166;" horiz-adv-x="560" 
d="M549 641h-231v-246h114v-66h-114v-329h-76v329h-115v66h115v246h-231v67h538v-67z" />
    <glyph glyph-name="tbar" unicode="&#x167;" horiz-adv-x="321" 
d="M301 234h-128v-82q0 -58 22.5 -75t67.5 -17h40v-60h-55q-78 0 -112 29.5t-34 110.5v94h-84v60h84v120h-84v60h83v131h72v-131h128v-60h-128v-120h128v-60z" />
    <glyph glyph-name="Utilde" unicode="&#x168;" horiz-adv-x="718" 
d="M632 708v-444q0 -122 -69 -202.5t-204 -80.5t-204.5 80.5t-69.5 202.5v444h76v-377q0 -31 1 -52t5 -53t11 -54t22 -47t35.5 -40t52 -25t71.5 -10t71 10t51.5 25t35.5 39.5t22.5 46.5t11.5 54t5 53.5t1 52.5v377h75zM358 859q43 -22 65 -22q34 0 45 46h43
q-17 -101 -88 -101q-34 0 -73 22q-40 22 -64 22q-35 0 -44 -48h-44q17 102 88 102q32 0 72 -21z" />
    <glyph glyph-name="utilde" unicode="&#x169;" horiz-adv-x="594" 
d="M432 88q-20 -43 -65 -72t-100 -29q-95 0 -138.5 61t-43.5 156v270h72v-268q0 -67 30 -112.5t98 -45.5q69 0 108.5 52.5t39.5 132.5v241h73v-474h-70v88h-4zM304 659q44 -23 65 -23q34 0 45 47h43q-17 -101 -88 -101q-34 0 -73 22q-38 21 -64 21q-35 0 -44 -47h-44
q17 102 88 102q32 0 72 -21z" />
    <glyph glyph-name="Umacron" unicode="&#x16a;" horiz-adv-x="718" 
d="M632 708v-444q0 -122 -69 -202.5t-204 -80.5t-204.5 80.5t-69.5 202.5v444h76v-377q0 -31 1 -52t5 -53t11 -54t22 -47t35.5 -40t52 -25t71.5 -10t71 10t51.5 25t35.5 39.5t22.5 46.5t11.5 54t5 53.5t1 52.5v377h75zM497 804h-277v53h277v-53z" />
    <glyph glyph-name="umacron" unicode="&#x16b;" horiz-adv-x="594" 
d="M432 88q-20 -43 -65 -72t-100 -29q-95 0 -138.5 61t-43.5 156v270h72v-268q0 -67 30 -112.5t98 -45.5q69 0 108.5 52.5t39.5 132.5v241h73v-474h-70v88h-4zM439 604h-277v53h277v-53z" />
    <glyph glyph-name="Ubreve" unicode="&#x16c;" horiz-adv-x="718" 
d="M632 708v-444q0 -122 -69 -202.5t-204 -80.5t-204.5 80.5t-69.5 202.5v444h76v-377q0 -31 1 -52t5 -53t11 -54t22 -47t35.5 -40t52 -25t71.5 -10t71 10t51.5 25t35.5 39.5t22.5 46.5t11.5 54t5 53.5t1 52.5v377h75zM508 905q-7 -65 -47 -99.5t-102 -34.5q-63 0 -103 34.5
t-46 99.5h45q7 -40 35.5 -61t68.5 -21q87 0 105 82h44z" />
    <glyph glyph-name="ubreve" unicode="&#x16d;" horiz-adv-x="594" 
d="M432 88q-20 -43 -65 -72t-100 -29q-95 0 -138.5 61t-43.5 156v270h72v-268q0 -67 30 -112.5t98 -45.5q69 0 108.5 52.5t39.5 132.5v241h73v-474h-70v88h-4zM449 705q-7 -65 -47 -99.5t-102 -34.5q-63 0 -103 34.5t-46 99.5h45q7 -40 35.5 -61t68.5 -21q87 0 105 82h44z
" />
    <glyph glyph-name="Uring" unicode="&#x16e;" horiz-adv-x="718" 
d="M632 708v-444q0 -122 -69 -202.5t-204 -80.5t-204.5 80.5t-69.5 202.5v444h76v-377q0 -31 1 -52t5 -53t11 -54t22 -47t35.5 -40t52 -25t71.5 -10t71 10t51.5 25t35.5 39.5t22.5 46.5t11.5 54t5 53.5t1 52.5v377h75zM458 886q0 -42 -29 -70t-71 -28q-41 0 -69.5 28
t-28.5 69q0 42 28.5 70t69.5 28q42 0 71 -28t29 -69zM417 886q0 24 -17 40t-42 16q-24 0 -40.5 -16t-16.5 -40t17 -40.5t40 -16.5q25 0 42 16.5t17 40.5z" />
    <glyph glyph-name="uring" unicode="&#x16f;" horiz-adv-x="594" 
d="M432 88q-20 -43 -65 -72t-100 -29q-95 0 -138.5 61t-43.5 156v270h72v-268q0 -67 30 -112.5t98 -45.5q69 0 108.5 52.5t39.5 132.5v241h73v-474h-70v88h-4zM399 652q0 -42 -29 -70t-71 -28q-41 0 -69.5 28t-28.5 69q0 42 28.5 70t69.5 28q42 0 71 -28t29 -69zM358 652
q0 24 -17 40t-42 16q-24 0 -40.5 -16t-16.5 -40t17 -40.5t40 -16.5q25 0 42 16.5t17 40.5z" />
    <glyph glyph-name="Uhungarumlaut" unicode="&#x170;" horiz-adv-x="718" 
d="M632 708v-444q0 -122 -69 -202.5t-204 -80.5t-204.5 80.5t-69.5 202.5v444h76v-377q0 -31 1 -52t5 -53t11 -54t22 -47t35.5 -40t52 -25t71.5 -10t71 10t51.5 25t35.5 39.5t22.5 46.5t11.5 54t5 53.5t1 52.5v377h75zM604 908l-129 -144h-59l101 144h87zM462 908l-130 -144
h-59l101 144h88z" />
    <glyph glyph-name="uhungarumlaut" unicode="&#x171;" horiz-adv-x="594" 
d="M432 88q-20 -43 -65 -72t-100 -29q-95 0 -138.5 61t-43.5 156v270h72v-268q0 -67 30 -112.5t98 -45.5q69 0 108.5 52.5t39.5 132.5v241h73v-474h-70v88h-4zM544 708l-129 -144h-59l101 144h87zM402 708l-130 -144h-59l101 144h88z" />
    <glyph glyph-name="Uogonek" unicode="&#x172;" horiz-adv-x="718" 
d="M435 -148l18 -42q-42 -35 -91 -35q-38 0 -65.5 23.5t-27.5 61.5q0 58 68 122q-124 6 -188 86t-64 196v444h76v-377q0 -31 1 -52t5 -53t11 -54t22 -47t35.5 -40t52 -25t71.5 -10t71 10t51.5 25t35.5 39.5t22.5 46.5t11.5 54t5 53.5t1 52.5v377h75v-444q0 -115 -62 -194
t-184 -88q-57 -60 -57 -105q0 -23 13 -35.5t36 -12.5q30 0 57 23z" />
    <glyph glyph-name="uogonek" unicode="&#x173;" horiz-adv-x="594" 
d="M518 -148l18 -42q-42 -35 -91 -35q-38 0 -65.5 23.5t-27.5 61.5q0 65 89 140h-5v88h-4q-20 -43 -65 -72t-100 -29q-95 0 -138.5 61t-43.5 156v270h72v-268q0 -67 30 -112.5t98 -45.5q69 0 108.5 52.5t39.5 132.5v241h73v-474h-20q-74 -72 -74 -123q0 -23 13 -35.5
t36 -12.5q30 0 57 23z" />
    <glyph glyph-name="Wcircumflex" unicode="&#x174;" horiz-adv-x="978" 
d="M963 708l-209 -708h-83l-181 604h-2l-181 -604h-82l-210 708h82l171 -601h2l176 601h87l177 -601h2l171 601h80zM447 908h84l110 -144h-71l-81 109l-81 -109h-70z" />
    <glyph glyph-name="wcircumflex" unicode="&#x175;" horiz-adv-x="750" 
d="M731 474l-150 -474h-78l-127 384h-2l-126 -384h-77l-151 474h78l113 -389h2l123 389h79l125 -389h2l113 389h76zM332 708h84l110 -144h-71l-81 109l-81 -109h-70z" />
    <glyph glyph-name="Ycircumflex" unicode="&#x176;" horiz-adv-x="598" 
d="M596 708l-259 -401v-307h-76v307l-259 401h94l205 -337l207 337h88zM257 908h84l110 -144h-71l-81 109l-81 -109h-70z" />
    <glyph glyph-name="ycircumflex" unicode="&#x177;" horiz-adv-x="481" 
d="M467 474l-221 -575q-28 -72 -60.5 -106t-96.5 -34q-38 0 -55 3v64q12 -3 52 -3q35 0 54.5 20t35.5 62l34 91l-197 478h81l154 -399h1l141 399h77zM198 708h84l110 -144h-71l-81 109l-81 -109h-70z" />
    <glyph glyph-name="Ydieresis" unicode="&#x178;" horiz-adv-x="598" 
d="M596 708l-259 -401v-307h-76v307l-259 401h94l205 -337l207 337h88zM208 800q-21 0 -35.5 14.5t-14.5 34.5q0 21 14.5 36t35.5 15q22 0 36.5 -15t14.5 -36q0 -20 -15 -34.5t-36 -14.5zM390 800q-21 0 -35.5 14.5t-14.5 34.5q0 21 14.5 36t35.5 15q22 0 36.5 -15t14.5 -36
q0 -20 -15 -34.5t-36 -14.5z" />
    <glyph glyph-name="Zacute" unicode="&#x179;" horiz-adv-x="593" 
d="M557 0h-518v69l419 572h-409v67h500v-70l-419 -570h427v-68zM425 908l-129 -144h-59l100 144h88z" />
    <glyph glyph-name="zacute" unicode="&#x17a;" horiz-adv-x="455" 
d="M417 0h-379v60l279 354h-265v60h354v-61l-280 -352h291v-61zM359 708l-129 -144h-59l101 144h87z" />
    <glyph glyph-name="Zdotaccent" unicode="&#x17b;" horiz-adv-x="593" 
d="M557 0h-518v69l419 572h-409v67h500v-70l-419 -570h427v-68zM294 800q-20 0 -35 14.5t-15 34.5q0 21 15 36t35 15q21 0 36 -14.5t15 -36.5q0 -21 -15 -35t-36 -14z" />
    <glyph glyph-name="zdotaccent" unicode="&#x17c;" horiz-adv-x="455" 
d="M417 0h-379v60l279 354h-265v60h354v-61l-280 -352h291v-61zM228 599q-20 0 -35 14.5t-15 35.5t15 35.5t35 14.5q21 0 36 -14.5t15 -35.5t-15 -35.5t-36 -14.5z" />
    <glyph glyph-name="Zcaron" unicode="&#x17d;" horiz-adv-x="593" 
d="M557 0h-518v69l419 572h-409v67h500v-70l-419 -570h427v-68zM336 764h-84l-108 144h70l81 -109l82 109h68z" />
    <glyph glyph-name="zcaron" unicode="&#x17e;" horiz-adv-x="455" 
d="M417 0h-379v60l279 354h-265v60h354v-61l-280 -352h291v-61zM271 564h-84l-108 144h70l81 -109l82 109h68z" />
    <glyph glyph-name="longs" unicode="&#x17f;" horiz-adv-x="286" 
d="M321 768v-62h-53q-50 0 -69.5 -24.5t-19.5 -87.5v-594h-73v414h-95v60h95v129q0 49 13.5 83t37 51t47.5 24t52 7h65z" />
    <glyph glyph-name="florin" unicode="&#x192;" horiz-adv-x="584" 
d="M536 693l-32 -55q-27 17 -55 17q-20 0 -35.5 -8.5t-24.5 -19t-16.5 -29.5t-10 -31l-6.5 -32l-22 -117h116v-56h-127l-61 -322q-16 -88 -50.5 -134.5t-109.5 -46.5q-46 0 -82 21l30 56q23 -14 49 -14q42 0 60.5 29t28.5 83l61 328h-111v56h122l24 128q7 37 17 65
t27.5 54.5t46 40.5t66.5 14q54 0 95 -27z" />
    <glyph glyph-name="Scommaaccent" unicode="&#x218;" horiz-adv-x="571" 
d="M510 188q0 -89 -69 -148t-169 -59q-56 0 -109 22.5t-76 41t-40 37.5l53 51q76 -84 176 -84q69 0 114 38t45 96q0 50 -36.5 79.5t-103.5 55.5q-5 2 -33 12.5t-35 13.5l-31.5 13.5t-32.5 16t-27.5 17.5t-26.5 21t-20 23.5t-17.5 28.5t-9 32.5t-4.5 38.5q0 82 61 137t157 55
q59 0 114 -23.5t89 -66.5l-50 -48q-64 71 -152 71q-67 0 -106 -33.5t-39 -84.5q0 -50 35 -78.5t101 -54.5q109 -42 140 -60q102 -58 102 -161zM296 -239l-39 19q37 67 42 86q-25 16 -25 44q0 20 12.5 33t32.5 13q18 0 31.5 -11.5t13.5 -36.5q0 -46 -68 -147z" />
    <glyph glyph-name="scommaaccent" unicode="&#x219;" horiz-adv-x="501" 
d="M456 136q0 -69 -55.5 -109t-144.5 -40q-75 0 -132 28t-89 61l54 47q77 -75 172 -75q54 0 88.5 21.5t34.5 60.5q0 17 -7.5 29.5t-18.5 20.5t-32.5 15t-38.5 11t-48 9q-28 4 -43 7q-147 28 -147 125q0 65 52.5 102.5t136.5 37.5q63 0 116.5 -21t86.5 -57l-50 -45
q-24 26 -66 44t-86 18q-49 0 -83.5 -18.5t-34.5 -54.5q0 -24 20 -40t47.5 -23.5t72.5 -14.5q96 -14 145.5 -44.5t49.5 -94.5zM238 -239l-39 19q37 67 42 86q-25 16 -25 44q0 20 12.5 33t32.5 13q18 0 31.5 -11.5t13.5 -36.5q0 -46 -68 -147z" />
    <glyph glyph-name="uni021A" unicode="&#x21a;" horiz-adv-x="560" 
d="M549 641h-231v-641h-76v641h-231v67h538v-67zM261 -239l-39 19q37 67 42 86q-25 16 -25 44q0 20 12.5 33t32.5 13q18 0 31.5 -11.5t13.5 -36.5q0 -46 -68 -147z" />
    <glyph glyph-name="uni021B" unicode="&#x21b;" horiz-adv-x="321" 
d="M303 0h-55q-83 0 -114.5 36.5t-31.5 130.5v247h-84v60h83v131h72v-131h128v-60h-128v-262q0 -58 22.5 -75t67.5 -17h40v-60zM146 -239l-39 19q37 67 42 86q-25 16 -25 44q0 20 12.5 33t32.5 13q18 0 31.5 -11.5t13.5 -36.5q0 -46 -68 -147z" />
    <glyph glyph-name="dotlessj" unicode="&#x237;" horiz-adv-x="248" 
d="M160 -84q0 -47 -12.5 -79.5t-35.5 -48t-48.5 -22t-57.5 -6.5h-28v60h17q54 0 74 28.5t20 96.5v529h71v-558z" />
    <glyph glyph-name="apostrophe" unicode="&#x2bc;" horiz-adv-x="247" 
d="M107 531l-39 19q37 67 42 86q-25 16 -25 44q0 20 12.5 33t32.5 13q18 0 31.5 -11.5t13.5 -36.5q0 -46 -68 -147z" />
    <glyph glyph-name="circumflex" unicode="&#x2c6;" horiz-adv-x="247" 
d="M81 708h84l110 -144h-71l-81 109l-81 -109h-70z" />
    <glyph glyph-name="caron" unicode="&#x2c7;" horiz-adv-x="247" 
d="M165 564h-84l-108 144h70l81 -109l82 109h68z" />
    <glyph glyph-name="uni02C9" unicode="&#x2c9;" horiz-adv-x="247" 
d="M262 804h-277v53h277v-53z" />
    <glyph glyph-name="breve" unicode="&#x2d8;" horiz-adv-x="247" 
d="M272 705q-7 -65 -47 -99.5t-102 -34.5q-63 0 -103 34.5t-46 99.5h45q7 -40 35.5 -61t68.5 -21q87 0 105 82h44z" />
    <glyph glyph-name="dotaccent" unicode="&#x2d9;" horiz-adv-x="247" 
d="M123 599q-20 0 -35 14.5t-15 35.5t15 35.5t35 14.5q21 0 36 -14.5t15 -35.5t-15 -35.5t-36 -14.5z" />
    <glyph glyph-name="ring" unicode="&#x2da;" horiz-adv-x="247" 
d="M223 652q0 -42 -29 -70t-71 -28q-41 0 -69.5 28t-28.5 69q0 42 28.5 70t69.5 28q42 0 71 -28t29 -69zM182 652q0 24 -17 40t-42 16q-24 0 -40.5 -16t-16.5 -40t17 -40.5t40 -16.5q25 0 42 16.5t17 40.5z" />
    <glyph glyph-name="ogonek" unicode="&#x2db;" horiz-adv-x="247" 
d="M188 -148l18 -42q-42 -35 -91 -35q-38 0 -65.5 23.5t-27.5 61.5q0 65 94 144h45q-79 -77 -79 -127q0 -23 13 -35.5t36 -12.5q30 0 57 23z" />
    <glyph glyph-name="tilde" unicode="&#x2dc;" horiz-adv-x="247" 
d="M127 659q44 -23 65 -23q34 0 45 47h43q-17 -101 -88 -101q-34 0 -73 22q-38 21 -64 21q-35 0 -44 -47h-44q17 102 88 102q32 0 72 -21z" />
    <glyph glyph-name="hungarumlaut" unicode="&#x2dd;" horiz-adv-x="247" 
d="M352 708l-129 -144h-59l101 144h87zM210 708l-130 -144h-59l101 144h88z" />
    <glyph glyph-name="Omega" unicode="&#x3a9;" horiz-adv-x="856" 
d="M428 660q-130 0 -210.5 -85t-80.5 -215q0 -53 14 -100t40 -84.5t48 -61.5t53 -51v-63h-237v68h148q-148 127 -148 300q0 157 105.5 258t267.5 101q161 0 266.5 -101t105.5 -258q0 -173 -148 -300h148v-68h-237v63q31 27 53 51t48 61.5t40 84.5t14 100q0 129 -80.5 214.5
t-209.5 85.5z" />
    <glyph glyph-name="pi" unicode="&#x3c0;" horiz-adv-x="571" 
d="M533 2q-29 -4 -66 -4q-52 0 -67 27t-15 86v296h-213v-407h-67v407h-70v63h494v-63h-77v-288q0 -31 8 -46t33 -15q27 0 40 1v-57z" />
    <glyph glyph-name="Wgrave" unicode="&#x1e80;" horiz-adv-x="978" 
d="M963 708l-209 -708h-83l-181 604h-2l-181 -604h-82l-210 708h82l171 -601h2l176 601h87l177 -601h2l171 601h80zM337 908h88l101 -144h-60z" />
    <glyph glyph-name="wgrave" unicode="&#x1e81;" horiz-adv-x="750" 
d="M731 474l-150 -474h-78l-127 384h-2l-126 -384h-77l-151 474h78l113 -389h2l123 389h79l125 -389h2l113 389h76zM214 708h87l101 -144h-59z" />
    <glyph glyph-name="Wacute" unicode="&#x1e82;" horiz-adv-x="978" 
d="M963 708l-209 -708h-83l-181 604h-2l-181 -604h-82l-210 708h82l171 -601h2l176 601h87l177 -601h2l171 601h80zM648 908l-129 -144h-59l100 144h88z" />
    <glyph glyph-name="wacute" unicode="&#x1e83;" horiz-adv-x="750" 
d="M731 474l-150 -474h-78l-127 384h-2l-126 -384h-77l-151 474h78l113 -389h2l123 389h79l125 -389h2l113 389h76zM535 708l-129 -144h-59l101 144h87z" />
    <glyph glyph-name="Wdieresis" unicode="&#x1e84;" horiz-adv-x="978" 
d="M963 708l-209 -708h-83l-181 604h-2l-181 -604h-82l-210 708h82l171 -601h2l176 601h87l177 -601h2l171 601h80zM398 800q-21 0 -35.5 14.5t-14.5 34.5q0 21 14.5 36t35.5 15q22 0 36.5 -15t14.5 -36q0 -20 -15 -34.5t-36 -14.5zM580 800q-21 0 -35.5 14.5t-14.5 34.5
q0 21 14.5 36t35.5 15q22 0 36.5 -15t14.5 -36q0 -20 -15 -34.5t-36 -14.5z" />
    <glyph glyph-name="wdieresis" unicode="&#x1e85;" horiz-adv-x="750" 
d="M731 474l-150 -474h-78l-127 384h-2l-126 -384h-77l-151 474h78l113 -389h2l123 389h79l125 -389h2l113 389h76zM283 599q-21 0 -35.5 15t-14.5 35t14.5 35t35.5 15q22 0 36.5 -14.5t14.5 -35.5t-15 -35.5t-36 -14.5zM465 599q-21 0 -35.5 15t-14.5 35t14.5 35t35.5 15
q22 0 36.5 -14.5t14.5 -35.5t-15 -35.5t-36 -14.5z" />
    <glyph glyph-name="Ygrave" unicode="&#x1ef2;" horiz-adv-x="598" 
d="M596 708l-259 -401v-307h-76v307l-259 401h94l205 -337l207 337h88zM153 908h88l101 -144h-60z" />
    <glyph glyph-name="ygrave" unicode="&#x1ef3;" horiz-adv-x="481" 
d="M467 474l-221 -575q-28 -72 -60.5 -106t-96.5 -34q-38 0 -55 3v64q12 -3 52 -3q35 0 54.5 20t35.5 62l34 91l-197 478h81l154 -399h1l141 399h77zM89 708h87l101 -144h-59z" />
    <glyph glyph-name="endash" unicode="&#x2013;" horiz-adv-x="400" 
d="M370 218h-340v59h340v-59z" />
    <glyph glyph-name="emdash" unicode="&#x2014;" horiz-adv-x="600" 
d="M570 218h-540v59h540v-59z" />
    <glyph glyph-name="quoteleft" unicode="&#x2018;" horiz-adv-x="238" 
d="M188 699q-47 -87 -57 -131q28 -19 28 -49q0 -22 -14.5 -36.5t-35.5 -14.5q-20 0 -35 13.5t-15 40.5q0 34 28.5 97.5t54.5 104.5z" />
    <glyph glyph-name="quoteright" unicode="&#x2019;" horiz-adv-x="238" 
d="M52 493q48 91 57 131q-28 19 -28 49q0 22 14.5 36.5t35.5 14.5q20 0 35 -13t15 -41q0 -34 -28.5 -97.5t-54.5 -104.5z" />
    <glyph glyph-name="quotesinglbase" unicode="&#x201a;" horiz-adv-x="238" 
d="M52 -116q48 91 57 131q-28 19 -28 49q0 22 14.5 36.5t35.5 14.5t35 -15t14 -45q0 -36 -27.5 -95t-54.5 -101z" />
    <glyph glyph-name="quotedblleft" unicode="&#x201c;" horiz-adv-x="403" 
d="M189 699q-47 -87 -57 -131q28 -19 28 -49q0 -22 -14.5 -36.5t-35.5 -14.5q-20 0 -35 13.5t-15 40.5q0 34 28.5 97.5t54.5 104.5zM354 699q-47 -87 -57 -131q28 -19 28 -49q0 -22 -14.5 -36.5t-35.5 -14.5q-20 0 -35 13.5t-15 40.5q0 34 28.5 97.5t54.5 104.5z" />
    <glyph glyph-name="quotedblright" unicode="&#x201d;" horiz-adv-x="403" 
d="M53 493q48 91 57 131q-28 19 -28 49q0 22 14.5 36.5t35.5 14.5q20 0 35 -13t15 -41q0 -34 -28.5 -97.5t-54.5 -104.5zM218 493q48 91 57 131q-28 19 -28 49q0 22 14.5 36.5t35.5 14.5q20 0 35 -13t15 -41q0 -34 -28.5 -97.5t-54.5 -104.5z" />
    <glyph glyph-name="quotedblbase" unicode="&#x201e;" horiz-adv-x="403" 
d="M53 -116q48 91 57 131q-28 19 -28 49q0 22 14.5 36.5t35.5 14.5t35 -15t14 -45q0 -36 -27.5 -95t-54.5 -101zM218 -116q48 91 57 131q-28 19 -28 49q0 22 14.5 36.5t35.5 14.5t35 -15t14 -45q0 -36 -27.5 -95t-54.5 -101z" />
    <glyph glyph-name="dagger" unicode="&#x2020;" horiz-adv-x="558" 
d="M514 442h-200v-568h-70v568h-199v62h199v204h70v-204h200v-62z" />
    <glyph glyph-name="daggerdbl" unicode="&#x2021;" horiz-adv-x="558" 
d="M244 453h-194v61h194v194h70v-194h194v-61h-194v-324h194v-61h-194v-194h-70v194h-194v61h194v324z" />
    <glyph glyph-name="bullet" unicode="&#x2022;" horiz-adv-x="500" 
d="M73 354q0 74 51.5 125.5t125.5 51.5t125.5 -51.5t51.5 -125.5t-51.5 -125.5t-125.5 -51.5t-125.5 51.5t-51.5 125.5z" />
    <glyph glyph-name="ellipsis" unicode="&#x2026;" horiz-adv-x="762" 
d="M127 -6q-22 0 -38 15.5t-16 37.5q0 23 15.5 38.5t38.5 15.5q22 0 38 -15.5t16 -37.5t-16 -38t-38 -16zM381 -6q-22 0 -38 15.5t-16 37.5q0 23 15.5 38.5t38.5 15.5q22 0 38 -15.5t16 -37.5t-16 -38t-38 -16zM635 -6q-22 0 -38 15.5t-16 37.5q0 23 15.5 38.5t38.5 15.5
q22 0 38 -15.5t16 -37.5t-16 -38t-38 -16z" />
    <glyph glyph-name="perthousand" unicode="&#x2030;" horiz-adv-x="1034" 
d="M351 565q0 -64 -45.5 -109.5t-110.5 -45.5t-110 45t-45 110t45 110.5t110 45.5t110.5 -45.5t45.5 -110.5zM292 565q0 41 -28 69t-69 28q-40 0 -67.5 -28t-27.5 -69t27.5 -69.5t67.5 -28.5q41 0 69 28.5t28 69.5zM651 146q0 -65 -45.5 -110t-110.5 -45q-64 0 -109.5 45
t-45.5 110q0 64 45.5 110t109.5 46q65 0 110.5 -46t45.5 -110zM592 146q0 41 -28 69t-69 28q-39 0 -67 -28t-28 -69t28 -69.5t67 -28.5q41 0 69 28.5t28 69.5zM1000 146q0 -65 -45.5 -110t-110.5 -45q-64 0 -109.5 45t-45.5 110q0 64 45.5 110t109.5 46t110 -46t46 -110z
M941 146q0 41 -28 69t-69 28q-39 0 -67 -28t-28 -69t28 -69.5t67 -28.5q41 0 69 28.5t28 69.5zM596 711l-464 -741l-44 26l465 741z" />
    <glyph glyph-name="guilsinglleft" unicode="&#x2039;" horiz-adv-x="303" 
d="M250 46h-70l-128 196l128 195h70l-126 -195z" />
    <glyph glyph-name="guilsinglright" unicode="&#x203a;" horiz-adv-x="303" 
d="M252 242l-128 -195h-70l125 195l-126 195h70z" />
    <glyph glyph-name="fraction" unicode="&#x2044;" horiz-adv-x="100" 
d="M291 713l-447 -746l-45 25l448 746z" />
    <glyph glyph-name="zerosuperior" unicode="&#x2070;" 
d="M192 276q-79 0 -116 63t-37 158t37.5 158.5t115.5 63.5t115.5 -63.5t37.5 -158.5t-37 -158t-116 -63zM192 667q-36 0 -57.5 -31.5t-27 -65.5t-5.5 -73q0 -40 5.5 -73.5t27 -64.5t57.5 -31q27 0 46 16.5t27.5 44.5t12 54t3.5 54t-3.5 54t-12 54t-27.5 45t-46 17z" />
    <glyph glyph-name="foursuperior" unicode="&#x2074;" 
d="M352 382h-65v-96h-61v96h-200v50l191 280h70v-279h65v-51zM226 433l-1 198l-133 -198h134z" />
    <glyph glyph-name="fivesuperior" unicode="&#x2075;" 
d="M107 495l-39 15l6 202h239v-53h-180l-4 -109q20 7 52 7q67 0 109 -37.5t42 -98.5q0 -65 -44.5 -105t-109.5 -40q-52 0 -92 26.5t-61 78.5h67q26 -53 86 -53q38 0 64 24t26 65q0 42 -28 66t-72 24q-30 0 -61 -12z" />
    <glyph glyph-name="sixsuperior" unicode="&#x2076;" 
d="M40 414q0 54 41 117l118 181h73l-113 -171q15 9 44 9q59 0 100 -38.5t41 -95.5q0 -62 -43.5 -101t-109.5 -39q-65 0 -108 39.5t-43 98.5zM102 414q0 -37 25 -61.5t64 -24.5q40 0 64.5 24t24.5 62t-24 62t-63 24t-65 -24t-26 -62z" />
    <glyph glyph-name="sevensuperior" unicode="&#x2077;" 
d="M326 712v-49l-179 -377h-70l182 373h-213v53h280z" />
    <glyph glyph-name="eightsuperior" unicode="&#x2078;" 
d="M341 404q0 -58 -43 -93t-106 -35q-64 0 -106.5 35t-42.5 93q0 74 72 107q-56 28 -56 91q0 51 38.5 84t94.5 33t94 -32.5t38 -83.5q0 -63 -57 -93q35 -14 54.5 -42.5t19.5 -63.5zM263 601q0 29 -20.5 47.5t-50.5 18.5t-50.5 -18.5t-20.5 -47.5q0 -28 20 -47t51 -19
q30 0 50.5 19t20.5 47zM277 406q0 33 -24.5 55.5t-60.5 22.5q-37 0 -61.5 -22t-24.5 -56t24 -56.5t62 -22.5q37 0 61 22.5t24 56.5z" />
    <glyph glyph-name="ninesuperior" unicode="&#x2079;" 
d="M344 579q0 -51 -42 -116l-116 -177h-74l113 168q-23 -9 -44 -9q-60 0 -100 37.5t-40 95.5q0 61 43 101t108 40q66 0 109 -40t43 -100zM282 579q0 37 -25.5 62.5t-64.5 25.5t-64 -25t-25 -63q0 -36 24.5 -60t63.5 -24t65 23.5t26 60.5z" />
    <glyph glyph-name="zeroinferior" unicode="&#x2080;" 
d="M192 -10q-79 0 -116 63t-37 158t37.5 158.5t115.5 63.5t115.5 -63.5t37.5 -158.5t-37 -158t-116 -63zM192 381q-36 0 -57.5 -31.5t-27 -65.5t-5.5 -73q0 -40 5.5 -73.5t27 -64.5t57.5 -31q27 0 46 16.5t27.5 44.5t12 54t3.5 54t-3.5 54t-12 54t-27.5 45t-46 17z" />
    <glyph glyph-name="oneinferior" unicode="&#x2081;" 
d="M240 0h-62v350l-81 -61l-29 45l120 92h52v-426z" />
    <glyph glyph-name="twoinferior" unicode="&#x2082;" 
d="M331 0h-288v52l168 165q52 52 52 92q0 30 -20 50.5t-52 20.5q-31 0 -52.5 -19t-29.5 -51h-61q8 56 47.5 89.5t96.5 33.5t96.5 -33t39.5 -87q0 -30 -15.5 -59.5t-31.5 -46.5t-51 -51l-106 -102h207v-54z" />
    <glyph glyph-name="threeinferior" unicode="&#x2083;" 
d="M328 120q0 -59 -42 -95t-105 -36q-119 0 -157 112h66q11 -27 35 -42.5t55 -15.5q37 0 61.5 21t24.5 56q0 38 -31.5 56.5t-73.5 18.5h-26v50h26q39 0 66 17t27 52q0 29 -21.5 48t-52.5 19q-50 0 -75 -48h-64q18 49 56.5 74.5t84.5 25.5q57 0 95 -31.5t38 -85.5
q0 -31 -16 -56t-46 -38q36 -13 55.5 -40t19.5 -62z" />
    <glyph glyph-name="fourinferior" unicode="&#x2084;" 
d="M352 96h-65v-96h-61v96h-200v50l191 280h70v-279h65v-51zM226 147l-1 198l-133 -198h134z" />
    <glyph glyph-name="fiveinferior" unicode="&#x2085;" 
d="M107 209l-39 15l6 202h239v-53h-180l-4 -109q20 7 52 7q67 0 109 -37.5t42 -98.5q0 -65 -44.5 -105t-109.5 -40q-52 0 -92 26.5t-61 78.5h67q26 -53 86 -53q38 0 64 24t26 65q0 42 -28 66t-72 24q-30 0 -61 -12z" />
    <glyph glyph-name="sixinferior" unicode="&#x2086;" 
d="M40 128q0 54 41 117l118 181h73l-113 -171q15 9 44 9q59 0 100 -38.5t41 -95.5q0 -62 -43.5 -101t-109.5 -39q-65 0 -108 39.5t-43 98.5zM102 128q0 -37 25 -61.5t64 -24.5q40 0 64.5 24t24.5 62t-24 62t-63 24t-65 -24t-26 -62z" />
    <glyph glyph-name="seveninferior" unicode="&#x2087;" 
d="M326 426v-49l-179 -377h-70l182 373h-213v53h280z" />
    <glyph glyph-name="eightinferior" unicode="&#x2088;" 
d="M341 118q0 -58 -43 -93t-106 -35q-64 0 -106.5 35t-42.5 93q0 74 72 107q-56 28 -56 91q0 51 38.5 84t94.5 33t94 -32.5t38 -83.5q0 -63 -57 -93q35 -14 54.5 -42.5t19.5 -63.5zM263 315q0 29 -20.5 47.5t-50.5 18.5t-50.5 -18.5t-20.5 -47.5q0 -28 20 -47t51 -19
q30 0 50.5 19t20.5 47zM277 120q0 33 -24.5 55.5t-60.5 22.5q-37 0 -61.5 -22t-24.5 -56t24 -56.5t62 -22.5q37 0 61 22.5t24 56.5z" />
    <glyph glyph-name="nineinferior" unicode="&#x2089;" 
d="M344 293q0 -51 -42 -116l-116 -177h-74l113 168q-23 -9 -44 -9q-60 0 -100 37.5t-40 95.5q0 61 43 101t108 40q66 0 109 -40t43 -100zM282 293q0 37 -25.5 62.5t-64.5 25.5t-64 -25t-25 -63q0 -36 24.5 -60t63.5 -24t65 23.5t26 60.5z" />
    <glyph glyph-name="Euro" unicode="&#x20ac;" horiz-adv-x="584" 
d="M521 632q-54 30 -130 30q-82 0 -141.5 -51.5t-80.5 -142.5h308l-18 -56h-301q-4 -24 -4 -63q0 -30 3 -54h268l-18 -55h-242q15 -87 76.5 -140t147.5 -53q81 0 139 39l28 -59q-67 -46 -173 -46q-119 0 -195 74t-96 185h-76l19 55h50q-3 23 -3 54q0 42 4 63h-68l19 56h57
q28 122 108.5 190.5t192.5 68.5q90 0 151 -33z" />
    <glyph glyph-name="afii61289" unicode="&#x2113;" horiz-adv-x="500" 
d="M285 -14q-57 0 -92 33t-35 95v113l-59 -61l-28 37l87 84v248q0 87 35.5 136.5t93.5 49.5q49 0 79.5 -34.5t30.5 -93.5q0 -144 -171 -318v-150q0 -47 22 -67t53 -20q45 0 88 39l27 -37q-60 -54 -131 -54zM340 587q0 38 -15.5 62t-37.5 24q-26 0 -43.5 -29.5t-17.5 -86.5
v-221q114 134 114 251z" />
    <glyph glyph-name="trademark" unicode="&#x2122;" horiz-adv-x="1000" 
d="M923 296h-64v332h-2l-134 -332h-42l-134 332h-2v-332h-63v412h93l127 -318l128 318h93v-412zM392 652h-129v-356h-64v356h-130v56h323v-56z" />
    <glyph glyph-name="uni2126" unicode="&#x2126;" horiz-adv-x="856" 
d="M428 660q-130 0 -210.5 -85t-80.5 -215q0 -53 14 -100t40 -84.5t48 -61.5t53 -51v-63h-237v68h148q-148 127 -148 300q0 157 105.5 258t267.5 101q161 0 266.5 -101t105.5 -258q0 -173 -148 -300h148v-68h-237v63q31 27 53 51t48 61.5t40 84.5t14 100q0 129 -80.5 214.5
t-209.5 85.5z" />
    <glyph glyph-name="estimated" unicode="&#x212e;" horiz-adv-x="901" 
d="M193 335v-184q0 -42 47 -77t108.5 -52.5t114.5 -17.5q70 0 139.5 34.5t117.5 89.5h60q-56 -69 -140 -107.5t-182 -38.5q-173 0 -296 109.5t-123 263.5t122.5 262.5t294.5 108.5q173 0 293 -111t120 -268h-666q-10 0 -10 -12zM203 365h502q10 0 10 10v185q0 27 -17 49
q-104 98 -244 98q-137 0 -241 -98q-20 -26 -20 -49v-185q0 -10 10 -10z" />
    <glyph glyph-name="onethird" unicode="&#x2153;" horiz-adv-x="870" 
d="M240 286h-62v350l-81 -61l-29 45l120 92h52v-426zM654 713l-447 -746l-45 25l448 746zM814 120q0 -59 -42 -95t-105 -36q-119 0 -157 112h66q11 -27 35 -42.5t55 -15.5q37 0 61.5 21t24.5 56q0 38 -31.5 56.5t-73.5 18.5h-26v50h26q39 0 66 17t27 52q0 29 -21.5 48
t-52.5 19q-50 0 -75 -48h-64q18 49 56.5 74.5t84.5 25.5q57 0 95 -31.5t38 -85.5q0 -31 -16 -56t-46 -38q36 -13 55.5 -40t19.5 -62z" />
    <glyph glyph-name="twothirds" unicode="&#x2154;" horiz-adv-x="870" 
d="M688 713l-447 -746l-45 25l448 746zM331 286h-288v52l168 165q52 52 52 92q0 30 -20 50.5t-52 20.5q-31 0 -52.5 -19t-29.5 -51h-61q8 56 47.5 89.5t96.5 33.5t96.5 -33t39.5 -87q0 -30 -15.5 -59.5t-31.5 -46.5t-51 -51l-106 -102h207v-54zM814 120q0 -59 -42 -95
t-105 -36q-119 0 -157 112h66q11 -27 35 -42.5t55 -15.5q37 0 61.5 21t24.5 56q0 38 -31.5 56.5t-73.5 18.5h-26v50h26q39 0 66 17t27 52q0 29 -21.5 48t-52.5 19q-50 0 -75 -48h-64q18 49 56.5 74.5t84.5 25.5q57 0 95 -31.5t38 -85.5q0 -31 -16 -56t-46 -38
q36 -13 55.5 -40t19.5 -62z" />
    <glyph glyph-name="onefifth" unicode="&#x2155;" horiz-adv-x="870" 
d="M698 713l-447 -746l-45 25l448 746zM240 286h-62v350l-81 -61l-29 45l120 92h52v-426zM661 222l-39 15l6 202h239v-53h-180l-4 -109q20 7 52 7q67 0 109 -37.5t42 -98.5q0 -65 -44.5 -105t-109.5 -40q-52 0 -92 26.5t-61 78.5h67q26 -53 86 -53q38 0 64 24t26 65
q0 42 -28 66t-72 24q-30 0 -61 -12z" />
    <glyph glyph-name="twofifths" unicode="&#x2156;" horiz-adv-x="870" 
d="M698 713l-447 -746l-45 25l448 746zM331 286h-288v52l168 165q52 52 52 92q0 30 -20 50.5t-52 20.5q-31 0 -52.5 -19t-29.5 -51h-61q8 56 47.5 89.5t96.5 33.5t96.5 -33t39.5 -87q0 -30 -15.5 -59.5t-31.5 -46.5t-51 -51l-106 -102h207v-54zM661 222l-39 15l6 202h239
v-53h-180l-4 -109q20 7 52 7q67 0 109 -37.5t42 -98.5q0 -65 -44.5 -105t-109.5 -40q-52 0 -92 26.5t-61 78.5h67q26 -53 86 -53q38 0 64 24t26 65q0 42 -28 66t-72 24q-30 0 -61 -12z" />
    <glyph glyph-name="threefifths" unicode="&#x2157;" horiz-adv-x="870" 
d="M698 713l-447 -746l-45 25l448 746zM661 222l-39 15l6 202h239v-53h-180l-4 -109q20 7 52 7q67 0 109 -37.5t42 -98.5q0 -65 -44.5 -105t-109.5 -40q-52 0 -92 26.5t-61 78.5h67q26 -53 86 -53q38 0 64 24t26 65q0 42 -28 66t-72 24q-30 0 -61 -12zM328 406
q0 -59 -42 -95t-105 -36q-119 0 -157 112h66q11 -27 35 -42.5t55 -15.5q37 0 61.5 21t24.5 56q0 38 -31.5 56.5t-73.5 18.5h-26v50h26q39 0 66 17t27 52q0 29 -21.5 48t-52.5 19q-50 0 -75 -48h-64q18 49 56.5 74.5t84.5 25.5q57 0 95 -31.5t38 -85.5q0 -31 -16 -56t-46 -38
q36 -13 55.5 -40t19.5 -62z" />
    <glyph glyph-name="fourfifths" unicode="&#x2158;" horiz-adv-x="870" 
d="M698 713l-447 -746l-45 25l448 746zM661 222l-39 15l6 202h239v-53h-180l-4 -109q20 7 52 7q67 0 109 -37.5t42 -98.5q0 -65 -44.5 -105t-109.5 -40q-52 0 -92 26.5t-61 78.5h67q26 -53 86 -53q38 0 64 24t26 65q0 42 -28 66t-72 24q-30 0 -61 -12zM352 382h-65v-96h-61
v96h-200v50l191 280h70v-279h65v-51zM226 433l-1 198l-133 -198h134z" />
    <glyph glyph-name="onesixth" unicode="&#x2159;" horiz-adv-x="870" 
d="M698 713l-447 -746l-45 25l448 746zM240 286h-62v350l-81 -61l-29 45l120 92h52v-426zM594 141q0 54 41 117l118 181h73l-113 -171q15 9 44 9q59 0 100 -38.5t41 -95.5q0 -62 -43.5 -101t-109.5 -39q-65 0 -108 39.5t-43 98.5zM656 141q0 -37 25 -61.5t64 -24.5
q40 0 64.5 24t24.5 62t-24 62t-63 24t-65 -24t-26 -62z" />
    <glyph glyph-name="fivesixths" unicode="&#x215a;" horiz-adv-x="870" 
d="M698 713l-447 -746l-45 25l448 746zM594 141q0 54 41 117l118 181h73l-113 -171q15 9 44 9q59 0 100 -38.5t41 -95.5q0 -62 -43.5 -101t-109.5 -39q-65 0 -108 39.5t-43 98.5zM656 141q0 -37 25 -61.5t64 -24.5q40 0 64.5 24t24.5 62t-24 62t-63 24t-65 -24t-26 -62z
M107 495l-39 15l6 202h239v-53h-180l-4 -109q20 7 52 7q67 0 109 -37.5t42 -98.5q0 -65 -44.5 -105t-109.5 -40q-52 0 -92 26.5t-61 78.5h67q26 -53 86 -53q38 0 64 24t26 65q0 42 -28 66t-72 24q-30 0 -61 -12z" />
    <glyph glyph-name="oneeighth" unicode="&#x215b;" horiz-adv-x="870" 
d="M668 713l-447 -746l-45 25l448 746zM240 286h-62v350l-81 -61l-29 45l120 92h52v-426zM845 118q0 -58 -43 -93t-106 -35q-64 0 -106.5 35t-42.5 93q0 74 72 107q-56 28 -56 91q0 51 38.5 84t94.5 33t94 -32.5t38 -83.5q0 -63 -57 -93q35 -14 54.5 -42.5t19.5 -63.5z
M767 315q0 29 -20.5 47.5t-50.5 18.5t-50.5 -18.5t-20.5 -47.5q0 -28 20 -47t51 -19q30 0 50.5 19t20.5 47zM781 120q0 33 -24.5 55.5t-60.5 22.5q-37 0 -61.5 -22t-24.5 -56t24 -56.5t62 -22.5q37 0 61 22.5t24 56.5z" />
    <glyph glyph-name="threeeighths" unicode="&#x215c;" horiz-adv-x="870" 
d="M698 713l-447 -746l-45 25l448 746zM895 131q0 -58 -43 -93t-106 -35q-64 0 -106.5 35t-42.5 93q0 74 72 107q-56 28 -56 91q0 51 38.5 84t94.5 33t94 -32.5t38 -83.5q0 -63 -57 -93q35 -14 54.5 -42.5t19.5 -63.5zM817 328q0 29 -20.5 47.5t-50.5 18.5t-50.5 -18.5
t-20.5 -47.5q0 -28 20 -47t51 -19q30 0 50.5 19t20.5 47zM831 133q0 33 -24.5 55.5t-60.5 22.5q-37 0 -61.5 -22t-24.5 -56t24 -56.5t62 -22.5q37 0 61 22.5t24 56.5zM328 406q0 -59 -42 -95t-105 -36q-119 0 -157 112h66q11 -27 35 -42.5t55 -15.5q37 0 61.5 21t24.5 56
q0 38 -31.5 56.5t-73.5 18.5h-26v50h26q39 0 66 17t27 52q0 29 -21.5 48t-52.5 19q-50 0 -75 -48h-64q18 49 56.5 74.5t84.5 25.5q57 0 95 -31.5t38 -85.5q0 -31 -16 -56t-46 -38q36 -13 55.5 -40t19.5 -62z" />
    <glyph glyph-name="fiveeighths" unicode="&#x215d;" horiz-adv-x="870" 
d="M698 713l-447 -746l-45 25l448 746zM107 495l-39 15l6 202h239v-53h-180l-4 -109q20 7 52 7q67 0 109 -37.5t42 -98.5q0 -65 -44.5 -105t-109.5 -40q-52 0 -92 26.5t-61 78.5h67q26 -53 86 -53q38 0 64 24t26 65q0 42 -28 66t-72 24q-30 0 -61 -12zM895 131
q0 -58 -43 -93t-106 -35q-64 0 -106.5 35t-42.5 93q0 74 72 107q-56 28 -56 91q0 51 38.5 84t94.5 33t94 -32.5t38 -83.5q0 -63 -57 -93q35 -14 54.5 -42.5t19.5 -63.5zM817 328q0 29 -20.5 47.5t-50.5 18.5t-50.5 -18.5t-20.5 -47.5q0 -28 20 -47t51 -19q30 0 50.5 19
t20.5 47zM831 133q0 33 -24.5 55.5t-60.5 22.5q-37 0 -61.5 -22t-24.5 -56t24 -56.5t62 -22.5q37 0 61 22.5t24 56.5z" />
    <glyph glyph-name="seveneighths" unicode="&#x215e;" horiz-adv-x="870" 
d="M698 713l-447 -746l-45 25l448 746zM895 131q0 -58 -43 -93t-106 -35q-64 0 -106.5 35t-42.5 93q0 74 72 107q-56 28 -56 91q0 51 38.5 84t94.5 33t94 -32.5t38 -83.5q0 -63 -57 -93q35 -14 54.5 -42.5t19.5 -63.5zM817 328q0 29 -20.5 47.5t-50.5 18.5t-50.5 -18.5
t-20.5 -47.5q0 -28 20 -47t51 -19q30 0 50.5 19t20.5 47zM831 133q0 33 -24.5 55.5t-60.5 22.5q-37 0 -61.5 -22t-24.5 -56t24 -56.5t62 -22.5q37 0 61 22.5t24 56.5zM326 712v-49l-179 -377h-70l182 373h-213v53h280z" />
    <glyph glyph-name="partialdiff" unicode="&#x2202;" horiz-adv-x="609" 
d="M228 708h88l173 -263q67 -102 67 -207q0 -108 -72 -179.5t-180 -71.5t-179 71t-71 180q0 108 71 178.5t179 70.5q51 0 94 -33l1 1q-12 19 -38 57zM480 238q0 79 -47.5 134t-128.5 55q-80 0 -128 -55t-48 -134t48 -134.5t128 -55.5q81 0 128.5 55.5t47.5 134.5z" />
    <glyph glyph-name="Delta" unicode="&#x2206;" horiz-adv-x="672" 
d="M653 0h-634l275 712h76zM555 64l-224 573l-217 -573h441z" />
    <glyph glyph-name="product" unicode="&#x220f;" horiz-adv-x="719" 
d="M646 -214h-70v936h-432v-936h-70v1000h572v-1000z" />
    <glyph glyph-name="summation" unicode="&#x2211;" horiz-adv-x="616" 
d="M585 -214h-554v57l323 447l-310 438v58h529v-64h-438l304 -432l-321 -441h467v-63z" />
    <glyph glyph-name="minus" unicode="&#x2212;" horiz-adv-x="666" 
d="M587 272h-508v64h508v-64z" />
    <glyph glyph-name="uni2215" unicode="&#x2215;" horiz-adv-x="100" 
d="M280 712l-434 -743l-51 27l436 743z" />
    <glyph glyph-name="uni2219" unicode="&#x2219;" horiz-adv-x="254" 
d="M128 235q-23 0 -39 15.5t-16 37.5t16 38t39 16q22 0 37.5 -15.5t15.5 -37.5q0 -23 -15.5 -38.5t-37.5 -15.5z" />
    <glyph glyph-name="radical" unicode="&#x221a;" horiz-adv-x="503" 
d="M299 -214h-70l-161 340l-52 -25l-25 55l111 51l151 -323l187 902h69z" />
    <glyph glyph-name="infinity" unicode="&#x221e;" horiz-adv-x="761" 
d="M397 207q-32 -35 -54 -54.5t-57 -37.5t-71 -18q-67 0 -108.5 45t-41.5 116q0 69 40.5 114t106.5 45q52 0 96 -31t89 -85q45 54 88.5 85.5t94.5 31.5q66 0 107 -45.5t41 -114.5q0 -70 -40.5 -116t-108.5 -46q-85 0 -182 111zM434 255q45 -46 79.5 -69.5t72.5 -23.5
q39 0 62 27t23 67q0 41 -23 69t-64 28q-35 0 -70 -25.5t-80 -72.5zM360 255q-46 46 -82 71.5t-71 25.5q-38 0 -61 -28t-23 -68q0 -41 23.5 -67.5t63.5 -26.5q61 0 150 93z" />
    <glyph glyph-name="integral" unicode="&#x222b;" horiz-adv-x="562" 
d="M295 19q-2 -121 -28.5 -175t-98.5 -54q-25 0 -44 13.5t-19 38.5q0 14 9.5 23.5t23.5 9.5q16 0 24.5 -11t14 -22t13.5 -11q20 0 28.5 54t8.5 112v488q0 54 1.5 91.5t6 73.5t12.5 58t21.5 40t33 25.5t46.5 7.5q28 0 51 -14t23 -38q0 -16 -10.5 -25.5t-26.5 -9.5
q-21 0 -33 22.5t-22 22.5q-35 0 -35 -169v-551z" />
    <glyph glyph-name="approxequal" unicode="&#x2248;" horiz-adv-x="666" 
d="M461 356q66 0 79 77h46q-6 -60 -38 -100.5t-94 -40.5q-43 0 -139.5 35t-127.5 35q-36 0 -56 -22.5t-25 -55.5h-47q7 60 38.5 101t91.5 41q44 0 138.5 -35t133.5 -35zM461 160q66 0 79 77h46q-6 -61 -38 -101.5t-94 -40.5q-44 0 -140 35.5t-127 35.5q-36 0 -56 -23
t-25 -56h-47q7 61 38.5 101.5t91.5 40.5q44 0 138.5 -34.5t133.5 -34.5z" />
    <glyph glyph-name="notequal" unicode="&#x2260;" horiz-adv-x="666" 
d="M302 334h-244v65h277l76 148l57 -28l-62 -120h150v-65h-183l-67 -131h250v-65h-283l-80 -156l-56 30l65 126h-144v65h177z" />
    <glyph glyph-name="lessequal" unicode="&#x2264;" horiz-adv-x="666" 
d="M582 0h-498v64h498v-64zM582 111l-498 193v67l498 195v-68l-414 -161l414 -158v-68z" />
    <glyph glyph-name="greaterequal" unicode="&#x2265;" horiz-adv-x="666" 
d="M84 0v64h498v-64h-498zM84 111v68l414 158l-414 161v68l498 -195v-67z" />
    <glyph glyph-name="lozenge" unicode="&#x25ca;" horiz-adv-x="593" 
d="M499 356l-171 -391h-65l-169 391l169 391h65zM431 356l-135 327l-135 -327l135 -327z" />
    <glyph glyph-name="fi" unicode="&#xf001;" horiz-adv-x="550" 
d="M321 768v-62h-53q-54 0 -71.5 -29t-17.5 -99v-104h114v-60h-114v-414h-73v414h-95v60h95v129q0 49 13.5 83t37 51t47.5 24t52 7h65zM426 610q-21 0 -35 14t-14 36t14 37t35 15q22 0 36.5 -15t14.5 -37t-14.5 -36t-36.5 -14zM462 0h-72v474h72v-474z" />
    <glyph glyph-name="fl" unicode="&#xf002;" horiz-adv-x="551" 
d="M321 768v-62h-53q-54 0 -71.5 -29t-17.5 -99v-104h114v-60h-114v-414h-73v414h-95v60h95v129q0 49 13.5 83t37 51t47.5 24t52 7h65zM463 0h-72v756h72v-756z" />
    <glyph glyph-name="oneseventh" unicode="&#xf506;" horiz-adv-x="870" 
d="M698 713l-447 -746l-45 25l448 746zM240 286h-62v350l-81 -61l-29 45l120 92h52v-426zM880 439v-49l-179 -377h-70l182 373h-213v53h280z" />
    <glyph glyph-name="twosevenths" unicode="&#xf507;" horiz-adv-x="870" 
d="M698 713l-447 -746l-45 25l448 746zM331 286h-288v52l168 165q52 52 52 92q0 30 -20 50.5t-52 20.5q-31 0 -52.5 -19t-29.5 -51h-61q8 56 47.5 89.5t96.5 33.5t96.5 -33t39.5 -87q0 -30 -15.5 -59.5t-31.5 -46.5t-51 -51l-106 -102h207v-54zM880 439v-49l-179 -377h-70
l182 373h-213v53h280z" />
    <glyph glyph-name="threesevenths" unicode="&#xf508;" horiz-adv-x="870" 
d="M698 713l-447 -746l-45 25l448 746zM880 439v-49l-179 -377h-70l182 373h-213v53h280zM328 406q0 -59 -42 -95t-105 -36q-119 0 -157 112h66q11 -27 35 -42.5t55 -15.5q37 0 61.5 21t24.5 56q0 38 -31.5 56.5t-73.5 18.5h-26v50h26q39 0 66 17t27 52q0 29 -21.5 48
t-52.5 19q-50 0 -75 -48h-64q18 49 56.5 74.5t84.5 25.5q57 0 95 -31.5t38 -85.5q0 -31 -16 -56t-46 -38q36 -13 55.5 -40t19.5 -62z" />
    <glyph glyph-name="foursevenths" unicode="&#xf509;" horiz-adv-x="870" 
d="M698 713l-447 -746l-45 25l448 746zM352 382h-65v-96h-61v96h-200v50l191 280h70v-279h65v-51zM226 433l-1 198l-133 -198h134zM880 439v-49l-179 -377h-70l182 373h-213v53h280z" />
    <glyph glyph-name="fivesevenths" unicode="&#xf50a;" horiz-adv-x="870" 
d="M698 713l-447 -746l-45 25l448 746zM107 495l-39 15l6 202h239v-53h-180l-4 -109q20 7 52 7q67 0 109 -37.5t42 -98.5q0 -65 -44.5 -105t-109.5 -40q-52 0 -92 26.5t-61 78.5h67q26 -53 86 -53q38 0 64 24t26 65q0 42 -28 66t-72 24q-30 0 -61 -12zM880 439v-49
l-179 -377h-70l182 373h-213v53h280z" />
    <glyph glyph-name="sixsevenths" unicode="&#xf50b;" horiz-adv-x="870" 
d="M698 713l-447 -746l-45 25l448 746zM40 414q0 54 41 117l118 181h73l-113 -171q15 9 44 9q59 0 100 -38.5t41 -95.5q0 -62 -43.5 -101t-109.5 -39q-65 0 -108 39.5t-43 98.5zM102 414q0 -37 25 -61.5t64 -24.5q40 0 64.5 24t24.5 62t-24 62t-63 24t-65 -24t-26 -62z
M880 439v-49l-179 -377h-70l182 373h-213v53h280z" />
    <glyph glyph-name="oneninth" unicode="&#xf50c;" horiz-adv-x="870" 
d="M698 713l-447 -746l-45 25l448 746zM240 286h-62v350l-81 -61l-29 45l120 92h52v-426zM898 306q0 -51 -42 -116l-116 -177h-74l113 168q-23 -9 -44 -9q-60 0 -100 37.5t-40 95.5q0 61 43 101t108 40q66 0 109 -40t43 -100zM836 306q0 37 -25.5 62.5t-64.5 25.5t-64 -25
t-25 -63q0 -36 24.5 -60t63.5 -24t65 23.5t26 60.5z" />
    <glyph glyph-name="twoninths" unicode="&#xf50d;" horiz-adv-x="870" 
d="M698 713l-447 -746l-45 25l448 746zM331 286h-288v52l168 165q52 52 52 92q0 30 -20 50.5t-52 20.5q-31 0 -52.5 -19t-29.5 -51h-61q8 56 47.5 89.5t96.5 33.5t96.5 -33t39.5 -87q0 -30 -15.5 -59.5t-31.5 -46.5t-51 -51l-106 -102h207v-54zM898 306q0 -51 -42 -116
l-116 -177h-74l113 168q-23 -9 -44 -9q-60 0 -100 37.5t-40 95.5q0 61 43 101t108 40q66 0 109 -40t43 -100zM836 306q0 37 -25.5 62.5t-64.5 25.5t-64 -25t-25 -63q0 -36 24.5 -60t63.5 -24t65 23.5t26 60.5z" />
    <glyph glyph-name="fourninths" unicode="&#xf50e;" horiz-adv-x="870" 
d="M698 713l-447 -746l-45 25l448 746zM352 382h-65v-96h-61v96h-200v50l191 280h70v-279h65v-51zM226 433l-1 198l-133 -198h134zM898 306q0 -51 -42 -116l-116 -177h-74l113 168q-23 -9 -44 -9q-60 0 -100 37.5t-40 95.5q0 61 43 101t108 40q66 0 109 -40t43 -100z
M836 306q0 37 -25.5 62.5t-64.5 25.5t-64 -25t-25 -63q0 -36 24.5 -60t63.5 -24t65 23.5t26 60.5z" />
    <glyph glyph-name="fiveninths" unicode="&#xf50f;" horiz-adv-x="870" 
d="M698 713l-447 -746l-45 25l448 746zM107 495l-39 15l6 202h239v-53h-180l-4 -109q20 7 52 7q67 0 109 -37.5t42 -98.5q0 -65 -44.5 -105t-109.5 -40q-52 0 -92 26.5t-61 78.5h67q26 -53 86 -53q38 0 64 24t26 65q0 42 -28 66t-72 24q-30 0 -61 -12zM898 306
q0 -51 -42 -116l-116 -177h-74l113 168q-23 -9 -44 -9q-60 0 -100 37.5t-40 95.5q0 61 43 101t108 40q66 0 109 -40t43 -100zM836 306q0 37 -25.5 62.5t-64.5 25.5t-64 -25t-25 -63q0 -36 24.5 -60t63.5 -24t65 23.5t26 60.5z" />
    <glyph glyph-name="sevenninths" unicode="&#xf510;" horiz-adv-x="870" 
d="M698 713l-447 -746l-45 25l448 746zM898 306q0 -51 -42 -116l-116 -177h-74l113 168q-23 -9 -44 -9q-60 0 -100 37.5t-40 95.5q0 61 43 101t108 40q66 0 109 -40t43 -100zM836 306q0 37 -25.5 62.5t-64.5 25.5t-64 -25t-25 -63q0 -36 24.5 -60t63.5 -24t65 23.5t26 60.5z
M326 712v-49l-179 -377h-70l182 373h-213v53h280z" />
    <glyph glyph-name="eightninths" unicode="&#xf511;" horiz-adv-x="870" 
d="M698 713l-447 -746l-45 25l448 746zM898 306q0 -51 -42 -116l-116 -177h-74l113 168q-23 -9 -44 -9q-60 0 -100 37.5t-40 95.5q0 61 43 101t108 40q66 0 109 -40t43 -100zM836 306q0 37 -25.5 62.5t-64.5 25.5t-64 -25t-25 -63q0 -36 24.5 -60t63.5 -24t65 23.5t26 60.5z
M341 404q0 -58 -43 -93t-106 -35q-64 0 -106.5 35t-42.5 93q0 74 72 107q-56 28 -56 91q0 51 38.5 84t94.5 33t94 -32.5t38 -83.5q0 -63 -57 -93q35 -14 54.5 -42.5t19.5 -63.5zM263 601q0 29 -20.5 47.5t-50.5 18.5t-50.5 -18.5t-20.5 -47.5q0 -28 20 -47t51 -19
q30 0 50.5 19t20.5 47zM277 406q0 33 -24.5 55.5t-60.5 22.5q-37 0 -61.5 -22t-24.5 -56t24 -56.5t62 -22.5q37 0 61 22.5t24 56.5z" />
    <glyph glyph-name="zero.alt" unicode="&#xf800;" horiz-adv-x="584" 
d="M293 -16q-83 0 -137.5 53.5t-76.5 133.5t-22 183q0 75 13 139.5t40 117.5t73.5 83t109.5 30q62 0 108.5 -30t73 -83t39.5 -117t13 -140q0 -103 -21.5 -183t-76 -133.5t-136.5 -53.5zM293 661q-48 0 -82 -30.5t-50 -81t-22 -97.5t-6 -98t6 -98t22 -97.5t50 -81t82 -30.5
q47 0 80.5 30.5t49 81t22 97.5t6.5 98t-6.5 98t-22 97.5t-49 81t-80.5 30.5z" />
    <glyph glyph-name="one.alt" unicode="&#xf801;" 
d="M279 0h-75v618l-134 -113l-43 52l184 151h68v-708z" />
    <glyph glyph-name="two.alt" unicode="&#xf802;" horiz-adv-x="572" 
d="M503 0h-442v73l271 283q92 97 92 172q0 60 -39 97t-98 37q-54 0 -92 -33.5t-50 -89.5h-75q13 86 73 135.5t145 49.5q90 0 150.5 -52t60.5 -140q0 -37 -10 -69.5t-37 -68.5t-44 -55.5t-61 -64.5l-199 -207h355v-67z" />
    <glyph glyph-name="three.alt" unicode="&#xf803;" horiz-adv-x="584" 
d="M502 194q0 -95 -64.5 -152.5t-162.5 -57.5q-184 0 -237 167h78q18 -47 60 -75t98 -29q65 -1 109.5 40t44.5 108q0 50 -29.5 84.5t-70 47.5t-86.5 13h-28v62h29q70 0 117 31.5t47 100.5q0 57 -39 92.5t-96 35.5q-43 0 -77.5 -22t-52.5 -61h-79q27 73 83.5 109t128.5 36
q88 0 147 -50t59 -136q0 -60 -35.5 -105.5t-96.5 -59.5v-2q70 -13 111.5 -61t41.5 -116z" />
    <glyph glyph-name="four.alt" unicode="&#xf804;" horiz-adv-x="586" 
d="M541 166h-107v-166h-72v166h-327v70l306 472h93v-477h107v-65zM362 231v392h-2l-249 -392h251z" />
    <glyph glyph-name="five.alt" unicode="&#xf805;" horiz-adv-x="586" 
d="M152 366l-47 20l7 322h365v-66h-295l-6 -213q41 17 99 17q103 0 167.5 -61.5t64.5 -161.5q0 -109 -68.5 -174t-169.5 -65q-80 0 -139.5 39t-88.5 117h80q20 -43 59 -68t89 -25q67 0 114.5 46.5t47.5 122.5q0 79 -50 124t-128 45q-46 0 -101 -19z" />
    <glyph glyph-name="six.alt" unicode="&#xf806;" horiz-adv-x="588" 
d="M57 211q0 88 67 196l185 301h89l-197 -308l1 -1q39 34 108 34q91 0 153.5 -62.5t62.5 -157.5q0 -101 -66.5 -165t-167.5 -64q-102 0 -168.5 64t-66.5 163zM133 210q0 -70 44.5 -116.5t114.5 -46.5t114 46t44 118q0 70 -43.5 116t-112.5 46q-70 0 -115.5 -46t-45.5 -117z
" />
    <glyph glyph-name="seven.alt" unicode="&#xf807;" horiz-adv-x="583" 
d="M498 708v-70l-287 -638h-85l296 642h-354v66h430z" />
    <glyph glyph-name="eight.alt" unicode="&#xf808;" horiz-adv-x="584" 
d="M521 191q0 -94 -65.5 -150.5t-162.5 -56.5q-98 0 -164 56.5t-66 150.5q0 67 38.5 116.5t100.5 67.5v2q-52 19 -82.5 61.5t-30.5 98.5q0 83 58.5 135t145.5 52q86 0 144.5 -51t58.5 -134q0 -56 -31 -100.5t-82 -61.5v-2q63 -17 100.5 -67t37.5 -117zM422 535
q0 55 -37.5 91t-91.5 36q-56 0 -93 -35.5t-37 -91.5q0 -54 37 -91t93 -37q55 0 92 37.5t37 90.5zM445 195q0 64 -43.5 106.5t-108.5 42.5q-66 0 -110 -42t-44 -107q0 -66 42.5 -107.5t111.5 -41.5q67 0 109.5 42t42.5 107z" />
    <glyph glyph-name="nine.alt" unicode="&#xf809;" horiz-adv-x="584" 
d="M527 498q0 -87 -66 -195l-185 -303h-89l197 310l-1 1q-40 -34 -109 -34q-92 0 -153.5 62t-61.5 157q0 101 66.5 164.5t168.5 63.5q101 0 167 -64t66 -162zM453 498q0 70 -45 117t-115 47t-114.5 -46t-44.5 -118q0 -70 44 -116t113 -46q71 0 116.5 46t45.5 116z" />
    <glyph glyph-name="zero.sups" unicode="&#xf80a;" 
d="M192 396q-79 0 -116 63t-37 158t37.5 158.5t115.5 63.5t115.5 -63.5t37.5 -158.5t-37 -158t-116 -63zM192 787q-36 0 -57.5 -31.5t-27 -65.5t-5.5 -73q0 -40 5.5 -73.5t27 -64.5t57.5 -31q27 0 46 16.5t27.5 44.5t12 54t3.5 54t-3.5 54t-12 54t-27.5 45t-46 17z" />
    <glyph glyph-name="one.sups" unicode="&#xf80b;" 
d="M240 406h-62v350l-81 -61l-29 45l120 92h52v-426z" />
    <glyph glyph-name="two.sups" unicode="&#xf80c;" 
d="M331 406h-288v52l168 165q52 52 52 92q0 30 -20 50.5t-52 20.5q-31 0 -52.5 -19t-29.5 -51h-61q8 56 47.5 89.5t96.5 33.5t96.5 -33t39.5 -87q0 -30 -15.5 -59.5t-31.5 -46.5t-51 -51l-106 -102h207v-54z" />
    <glyph glyph-name="three.sups" unicode="&#xf80d;" 
d="M328 526q0 -59 -42 -95t-105 -36q-119 0 -157 112h66q11 -27 35 -42.5t55 -15.5q37 0 61.5 21t24.5 56q0 38 -31.5 56.5t-73.5 18.5h-26v50h26q39 0 66 17t27 52q0 29 -21.5 48t-52.5 19q-50 0 -75 -48h-64q18 49 56.5 74.5t84.5 25.5q57 0 95 -31.5t38 -85.5
q0 -31 -16 -56t-46 -38q36 -13 55.5 -40t19.5 -62z" />
    <glyph glyph-name="four.sups" unicode="&#xf80e;" 
d="M352 502h-65v-96h-61v96h-200v50l191 280h70v-279h65v-51zM226 553l-1 198l-133 -198h134z" />
    <glyph glyph-name="five.sups" unicode="&#xf80f;" 
d="M107 615l-39 15l6 202h239v-53h-180l-4 -109q20 7 52 7q67 0 109 -37.5t42 -98.5q0 -65 -44.5 -105t-109.5 -40q-52 0 -92 26.5t-61 78.5h67q26 -53 86 -53q38 0 64 24t26 65q0 42 -28 66t-72 24q-30 0 -61 -12z" />
    <glyph glyph-name="six.sups" unicode="&#xf810;" 
d="M40 534q0 54 41 117l118 181h73l-113 -171q15 9 44 9q59 0 100 -38.5t41 -95.5q0 -62 -43.5 -101t-109.5 -39q-65 0 -108 39.5t-43 98.5zM102 534q0 -37 25 -61.5t64 -24.5q40 0 64.5 24t24.5 62t-24 62t-63 24t-65 -24t-26 -62z" />
    <glyph glyph-name="seven.sups" unicode="&#xf811;" 
d="M326 832v-49l-179 -377h-70l182 373h-213v53h280z" />
    <glyph glyph-name="eight.sups" unicode="&#xf812;" 
d="M341 524q0 -58 -43 -93t-106 -35q-64 0 -106.5 35t-42.5 93q0 74 72 107q-56 28 -56 91q0 51 38.5 84t94.5 33t94 -32.5t38 -83.5q0 -63 -57 -93q35 -14 54.5 -42.5t19.5 -63.5zM263 721q0 29 -20.5 47.5t-50.5 18.5t-50.5 -18.5t-20.5 -47.5q0 -28 20 -47t51 -19
q30 0 50.5 19t20.5 47zM277 526q0 33 -24.5 55.5t-60.5 22.5q-37 0 -61.5 -22t-24.5 -56t24 -56.5t62 -22.5q37 0 61 22.5t24 56.5z" />
    <glyph glyph-name="nine.sups" unicode="&#xf813;" 
d="M344 699q0 -51 -42 -116l-116 -177h-74l113 168q-23 -9 -44 -9q-60 0 -100 37.5t-40 95.5q0 61 43 101t108 40q66 0 109 -40t43 -100zM282 699q0 37 -25.5 62.5t-64.5 25.5t-64 -25t-25 -63q0 -36 24.5 -60t63.5 -24t65 23.5t26 60.5z" />
    <glyph glyph-name="zero.sinf" unicode="&#xf814;" 
d="M192 -144q-79 0 -116 63t-37 158t37.5 158.5t115.5 63.5t115.5 -63.5t37.5 -158.5t-37 -158t-116 -63zM192 247q-36 0 -57.5 -31.5t-27 -65.5t-5.5 -73q0 -40 5.5 -73.5t27 -64.5t57.5 -31q27 0 46 16.5t27.5 44.5t12 54t3.5 54t-3.5 54t-12 54t-27.5 45t-46 17z" />
    <glyph glyph-name="one.sinf" unicode="&#xf815;" 
d="M240 -134h-62v350l-81 -61l-29 45l120 92h52v-426z" />
    <glyph glyph-name="two.sinf" unicode="&#xf816;" 
d="M331 -134h-288v52l168 165q52 52 52 92q0 30 -20 50.5t-52 20.5q-31 0 -52.5 -19t-29.5 -51h-61q8 56 47.5 89.5t96.5 33.5t96.5 -33t39.5 -87q0 -30 -15.5 -59.5t-31.5 -46.5t-51 -51l-106 -102h207v-54z" />
    <glyph glyph-name="three.sinf" unicode="&#xf817;" 
d="M328 -14q0 -59 -42 -95t-105 -36q-119 0 -157 112h66q11 -27 35 -42.5t55 -15.5q37 0 61.5 21t24.5 56q0 38 -31.5 56.5t-73.5 18.5h-26v50h26q39 0 66 17t27 52q0 29 -21.5 48t-52.5 19q-50 0 -75 -48h-64q18 49 56.5 74.5t84.5 25.5q57 0 95 -31.5t38 -85.5
q0 -31 -16 -56t-46 -38q36 -13 55.5 -40t19.5 -62z" />
    <glyph glyph-name="four.sinf" unicode="&#xf818;" 
d="M352 -38h-65v-96h-61v96h-200v50l191 280h70v-279h65v-51zM226 13l-1 198l-133 -198h134z" />
    <glyph glyph-name="five.sinf" unicode="&#xf819;" 
d="M107 75l-39 15l6 202h239v-53h-180l-4 -109q20 7 52 7q67 0 109 -37.5t42 -98.5q0 -65 -44.5 -105t-109.5 -40q-52 0 -92 26.5t-61 78.5h67q26 -53 86 -53q38 0 64 24t26 65q0 42 -28 66t-72 24q-30 0 -61 -12z" />
    <glyph glyph-name="six.sinf" unicode="&#xf81a;" 
d="M40 -6q0 54 41 117l118 181h73l-113 -171q15 9 44 9q59 0 100 -38.5t41 -95.5q0 -62 -43.5 -101t-109.5 -39q-65 0 -108 39.5t-43 98.5zM102 -6q0 -37 25 -61.5t64 -24.5q40 0 64.5 24t24.5 62t-24 62t-63 24t-65 -24t-26 -62z" />
    <glyph glyph-name="seven.sinf" unicode="&#xf81b;" 
d="M326 292v-49l-179 -377h-70l182 373h-213v53h280z" />
    <glyph glyph-name="eight.sinf" unicode="&#xf81c;" 
d="M341 -16q0 -58 -43 -93t-106 -35q-64 0 -106.5 35t-42.5 93q0 74 72 107q-56 28 -56 91q0 51 38.5 84t94.5 33t94 -32.5t38 -83.5q0 -63 -57 -93q35 -14 54.5 -42.5t19.5 -63.5zM263 181q0 29 -20.5 47.5t-50.5 18.5t-50.5 -18.5t-20.5 -47.5q0 -28 20 -47t51 -19
q30 0 50.5 19t20.5 47zM277 -14q0 33 -24.5 55.5t-60.5 22.5q-37 0 -61.5 -22t-24.5 -56t24 -56.5t62 -22.5q37 0 61 22.5t24 56.5z" />
    <glyph glyph-name="nine.sinf" unicode="&#xf81d;" 
d="M344 159q0 -51 -42 -116l-116 -177h-74l113 168q-23 -9 -44 -9q-60 0 -100 37.5t-40 95.5q0 61 43 101t108 40q66 0 109 -40t43 -100zM282 159q0 37 -25.5 62.5t-64.5 25.5t-64 -25t-25 -63q0 -36 24.5 -60t63.5 -24t65 23.5t26 60.5z" />
    <glyph glyph-name="zero.tosf" unicode="&#xf81e;" horiz-adv-x="584" 
d="M531 253q0 -112 -66.5 -189t-172.5 -77q-105 0 -172 77.5t-67 188.5t67 187.5t172 76.5q106 0 172.5 -76.5t66.5 -187.5zM456 253q0 82 -42.5 143t-121.5 61q-78 0 -121 -61t-43 -143t43 -143.5t121 -61.5q79 0 121.5 61t42.5 144z" />
    <glyph glyph-name="one.tosf" unicode="&#xf81f;" horiz-adv-x="584" 
d="M357 0h-73v418l-108 -90l-40 49l155 127h66v-504z" />
    <glyph glyph-name="two.tosf" unicode="&#xf820;" horiz-adv-x="584" 
d="M497 0h-391v64l151 118l80 64t47 53t23 65q0 44 -31.5 68t-82.5 24t-84 -25t-43 -73h-73q14 76 65.5 117.5t135.5 41.5q82 0 135 -38.5t53 -112.5q0 -22 -4.5 -41.5t-17 -38.5l-21.5 -32t-32 -33l-34 -29t-41.5 -32l-41.5 -31l-85 -64v-1h292v-64z" />
    <glyph glyph-name="three.tosf" unicode="&#xf821;" horiz-adv-x="584" 
d="M502 -13q0 -95 -64.5 -152.5t-162.5 -57.5q-184 0 -237 167h78q18 -47 60 -75t98 -29q65 -1 109.5 40t44.5 108q0 50 -29.5 84.5t-70 47.5t-86.5 13h-28v62h29q70 0 117 31.5t47 100.5q0 57 -39 92.5t-96 35.5q-43 0 -77.5 -22t-52.5 -61h-79q27 73 83.5 109t128.5 36
q88 0 147 -50t59 -136q0 -60 -35.5 -105.5t-96.5 -59.5v-2q70 -13 111.5 -61t41.5 -116z" />
    <glyph glyph-name="four.tosf" unicode="&#xf822;" horiz-adv-x="584" 
d="M541 0h-107v-203h-72v203h-327v70l306 435h93v-441h107v-64zM362 64v356h-2l-249 -356h251z" />
    <glyph glyph-name="five.tosf" unicode="&#xf823;" horiz-adv-x="584" 
d="M152 162l-47 20l7 322h365v-66h-295l-6 -213q41 17 99 17q103 0 167.5 -61.5t64.5 -161.5q0 -109 -68.5 -174t-169.5 -65q-80 0 -139.5 39t-88.5 117h80q20 -43 59 -68t89 -25q67 0 114.5 46.5t47.5 122.5q0 79 -50 124t-128 45q-46 0 -101 -19z" />
    <glyph glyph-name="six.tosf" unicode="&#xf824;" horiz-adv-x="584" 
d="M57 211q0 88 67 196l185 301h89l-197 -308l1 -1q39 34 108 34q91 0 153.5 -62.5t62.5 -157.5q0 -101 -66.5 -165t-167.5 -64q-102 0 -168.5 64t-66.5 163zM133 210q0 -70 44.5 -116.5t114.5 -46.5t114 46t44 118q0 70 -43.5 116t-112.5 46q-70 0 -115.5 -46t-45.5 -117z
" />
    <glyph glyph-name="seven.tosf" unicode="&#xf825;" horiz-adv-x="584" 
d="M498 504v-70l-287 -638h-85l296 642h-354v66h430z" />
    <glyph glyph-name="eight.tosf" unicode="&#xf826;" horiz-adv-x="584" 
d="M521 191q0 -94 -65.5 -150.5t-162.5 -56.5q-98 0 -164 56.5t-66 150.5q0 67 38.5 116.5t100.5 67.5v2q-52 19 -82.5 61.5t-30.5 98.5q0 83 58.5 135t145.5 52q86 0 144.5 -51t58.5 -134q0 -56 -31 -100.5t-82 -61.5v-2q63 -17 100.5 -67t37.5 -117zM422 535
q0 55 -37.5 91t-91.5 36q-56 0 -93 -35.5t-37 -91.5q0 -54 37 -91t93 -37q55 0 92 37.5t37 90.5zM445 195q0 64 -43.5 106.5t-108.5 42.5q-66 0 -110 -42t-44 -107q0 -66 42.5 -107.5t111.5 -41.5q67 0 109.5 42t42.5 107z" />
    <glyph glyph-name="nine.tosf" unicode="&#xf827;" horiz-adv-x="584" 
d="M527 291q0 -87 -66 -195l-185 -303h-89l197 310l-1 1q-40 -34 -109 -34q-92 0 -153.5 62t-61.5 157q0 101 66.5 164.5t168.5 63.5q101 0 167 -64t66 -162zM453 291q0 70 -45 117t-115 47t-114.5 -46t-44.5 -118q0 -70 44 -116t113 -46q71 0 116.5 45.5t45.5 116.5z" />
    <glyph glyph-name="zero.posf" unicode="&#xf828;" horiz-adv-x="584" 
d="M531 253q0 -112 -66.5 -189t-172.5 -77q-105 0 -172 77.5t-67 188.5t67 187.5t172 76.5q106 0 172.5 -76.5t66.5 -187.5zM456 253q0 82 -42.5 143t-121.5 61q-78 0 -121 -61t-43 -143t43 -143.5t121 -61.5q79 0 121.5 61t42.5 144z" />
    <glyph glyph-name="one.posf" unicode="&#xf829;" horiz-adv-x="341" 
d="M255 0h-72v418l-109 -90l-39 49l155 127h65v-504z" />
    <glyph glyph-name="two.posf" unicode="&#xf82a;" horiz-adv-x="506" 
d="M448 0h-391v64l151 118l80 64t47 53t23 65q0 44 -31.5 68t-82.5 24t-84 -25t-43 -73h-73q14 76 65.5 117.5t135.5 41.5q82 0 135 -38.5t53 -112.5q0 -22 -4.5 -41.5t-17 -38.5l-21.5 -32t-32 -33l-34 -29t-41.5 -32l-41.5 -31l-85 -64v-1h292v-64z" />
    <glyph glyph-name="three.posf" unicode="&#xf82b;" horiz-adv-x="570" 
d="M495 -2q0 -95 -64.5 -151t-162.5 -56q-184 0 -237 167h78q19 -46 61 -75t97 -29q66 0 110 38.5t44 106.5q0 73 -55.5 107t-130.5 34h-28v62h29q70 0 117 30t47 99q0 56 -39 90t-96 34q-43 0 -77.5 -22t-52.5 -61h-79q27 73 83.5 109t128.5 36q89 0 147.5 -48t58.5 -134
q0 -60 -35.5 -104t-96.5 -58v-2q71 -13 112 -59.5t41 -113.5z" />
    <glyph glyph-name="four.posf" unicode="&#xf82c;" horiz-adv-x="582" 
d="M541 0h-100v-203h-72v203h-334v70l313 435h93v-441h100v-64zM369 64v357h-2l-256 -357h258z" />
    <glyph glyph-name="five.posf" unicode="&#xf82d;" horiz-adv-x="584" 
d="M152 166l-47 20l7 318h365v-66h-295l-6 -209q41 17 99 17q103 0 167.5 -60t64.5 -160q0 -108 -68 -171.5t-170 -63.5q-80 0 -139.5 39t-88.5 117h80q20 -43 59 -68t89 -25q68 0 115 44.5t47 120.5q0 80 -49.5 123.5t-128.5 43.5q-43 0 -101 -20z" />
    <glyph glyph-name="six.posf" unicode="&#xf82e;" horiz-adv-x="584" 
d="M57 211q0 88 67 196l200 318l62 -37l-185 -288l1 -1q39 34 108 34q91 0 153.5 -62.5t62.5 -157.5q0 -101 -66.5 -165t-167.5 -64q-102 0 -168.5 64t-66.5 163zM133 210q0 -70 44.5 -116.5t114.5 -46.5t114 46t44 118q0 70 -43.5 116t-112.5 46q-70 0 -115.5 -46
t-45.5 -117z" />
    <glyph glyph-name="seven.posf" unicode="&#xf82f;" horiz-adv-x="566" 
d="M484 504v-70l-296 -643l-70 33l293 614h-357v66h430z" />
    <glyph glyph-name="eight.posf" unicode="&#xf830;" horiz-adv-x="584" 
d="M521 191q0 -94 -65.5 -150.5t-162.5 -56.5q-98 0 -164 56.5t-66 150.5q0 67 38.5 116.5t100.5 67.5v2q-52 19 -82.5 61.5t-30.5 98.5q0 83 58.5 135t145.5 52q86 0 144.5 -51t58.5 -134q0 -56 -31 -100.5t-82 -61.5v-2q63 -17 100.5 -67t37.5 -117zM422 535
q0 55 -37.5 91t-91.5 36q-56 0 -93 -35.5t-37 -91.5q0 -54 37 -91t93 -37q55 0 92 37.5t37 90.5zM445 195q0 64 -43.5 106.5t-108.5 42.5q-66 0 -110 -42t-44 -107q0 -66 42.5 -107.5t111.5 -41.5q67 0 109.5 42t42.5 107z" />
    <glyph glyph-name="nine.posf" unicode="&#xf831;" horiz-adv-x="584" 
d="M527 291q0 -90 -66 -195l-189 -305l-63 37l175 275l-1 1q-42 -35 -109 -35q-91 0 -153 62t-62 157q0 101 66.5 165t168.5 64q101 0 167 -64t66 -162zM453 291q0 70 -45 117t-115 47t-114.5 -46t-44.5 -118q0 -71 44 -116.5t113 -45.5q71 0 116.5 45.5t45.5 116.5z" />
    <glyph glyph-name="CR" horiz-adv-x="0" 
 />
    <glyph glyph-name="i.locl" horiz-adv-x="248" 
d="M124 610q-21 0 -35 14t-14 36t14 37t35 15q22 0 36.5 -15t14.5 -37t-14.5 -36t-36.5 -14zM160 0h-72v474h72v-474z" />
    <glyph glyph-name="kgreenlandic.case" horiz-adv-x="704" 
d="M552 0l-246 351l-138 -152v-199h-76v708h76v-417l363 417h98l-271 -301l289 -407h-95zM738 699q-47 -87 -57 -131q28 -19 28 -49q0 -22 -14.5 -36.5t-35.5 -14.5q-20 0 -35 13.5t-15 40.5q0 34 28.5 97.5t54.5 104.5z" />
    <glyph glyph-name="napostrophe.case" horiz-adv-x="755" 
d="M663 0h-77l-420 586h-1v-586h-73v708h76l421 -587v587h74v-708zM134 758l-39 19q37 67 42 86q-25 16 -25 44q0 20 12.5 33t32.5 13q18 0 31.5 -11.5t13.5 -36.5q0 -46 -68 -147z" />
    <glyph glyph-name="ff" horiz-adv-x="603" 
d="M321 768v-62h-53q-54 0 -71.5 -29t-17.5 -99v-104h114v-60h-114v-414h-73v414h-95v60h95v129q0 49 13.5 83t37 51t47.5 24t52 7h65zM623 768v-62h-53q-54 0 -71.5 -29t-17.5 -99v-104h114v-60h-114v-414h-73v414h-95v60h95v129q0 49 13.5 83t37 51t47.5 24t52 7h65z" />
    <glyph glyph-name="ffi" horiz-adv-x="852" 
d="M321 768v-62h-53q-54 0 -71.5 -29t-17.5 -99v-104h114v-60h-114v-414h-73v414h-95v60h95v129q0 49 13.5 83t37 51t47.5 24t52 7h65zM623 768v-62h-53q-54 0 -71.5 -29t-17.5 -99v-104h114v-60h-114v-414h-73v414h-95v60h95v129q0 49 13.5 83t37 51t47.5 24t52 7h65z
M727 610q-21 0 -35 14t-14 36t14 37t35 15q22 0 36.5 -15t14.5 -37t-14.5 -36t-36.5 -14zM763 0h-72v474h72v-474z" />
    <glyph glyph-name="ffl" horiz-adv-x="853" 
d="M321 768v-62h-53q-54 0 -71.5 -29t-17.5 -99v-104h114v-60h-114v-414h-73v414h-95v60h95v129q0 49 13.5 83t37 51t47.5 24t52 7h65zM623 768v-62h-53q-54 0 -71.5 -29t-17.5 -99v-104h114v-60h-114v-414h-73v414h-95v60h95v129q0 49 13.5 83t37 51t47.5 24t52 7h65z
M764 0h-72v756h72v-756z" />
    <glyph glyph-name="questiondown.alt" horiz-adv-x="492" 
d="M261 617q-22 0 -37.5 15.5t-15.5 37.5t15.5 38t37.5 16t38 -15.5t16 -37.5q0 -23 -15.5 -38.5t-38.5 -15.5zM229 500v17h73v-29q0 -53 -19 -93.5t-65 -83.5q-32 -29 -45 -43t-24.5 -38t-11.5 -52q0 -54 35 -85.5t90 -31.5q54 0 89.5 34t38.5 86h74q-4 -88 -61.5 -137.5
t-144.5 -49.5q-85 0 -141 47.5t-56 132.5q0 57 22.5 92t71.5 77q43 36 58.5 69.5t15.5 87.5z" />
    <glyph glyph-name="exclamdown.alt" horiz-adv-x="317" 
d="M158 607q-22 0 -38 15.5t-16 38.5q0 22 16 37.5t38 15.5t38 -16t16 -38t-15.5 -37.5t-38.5 -15.5zM188 505l16 -505h-92l16 505h60z" />
    <glyph glyph-name="guilsinglleft.alt" horiz-adv-x="303" 
d="M250 164h-70l-128 195l128 196h70l-126 -196z" />
    <glyph glyph-name="guilsinglright.alt" horiz-adv-x="303" 
d="M252 359l-128 -195h-70l125 195l-126 196h70z" />
    <glyph glyph-name="guillemotleft.alt" horiz-adv-x="501" 
d="M250 164h-70l-128 195l128 196h70l-126 -196zM447 164h-70l-128 195l128 196h70l-126 -196z" />
    <glyph glyph-name="guillemotright.alt" horiz-adv-x="501" 
d="M252 359l-128 -195h-70l125 195l-126 196h70zM449 359l-128 -195h-70l125 195l-126 196h70z" />
    <glyph glyph-name="parenleft.alt" horiz-adv-x="310" 
d="M46 353q0 121 37.5 237.5t103.5 207.5l53 -34q-59 -82 -93.5 -192t-34.5 -219t34.5 -219t93.5 -192l-53 -34q-66 91 -103.5 207.5t-37.5 237.5z" />
    <glyph glyph-name="parenright.alt" horiz-adv-x="310" 
d="M264 353q0 -121 -37.5 -237.5t-103.5 -207.5l-54 34q60 82 94.5 192t34.5 219t-34.5 219t-94.5 192l54 34q66 -91 103.5 -207.5t37.5 -237.5z" />
    <glyph glyph-name="bracketleft.alt" horiz-adv-x="310" 
d="M231 -91h-166v888h166v-52h-100v-784h100v-52z" />
    <glyph glyph-name="bracketright.alt" horiz-adv-x="310" 
d="M79 -91v52h101v784h-101v52h166v-888h-166z" />
    <glyph glyph-name="braceleft.alt" horiz-adv-x="310" 
d="M3 324v58q75 0 75 97v190q0 66 32 97t83 31h61v-54h-49q-61 0 -61 -82v-187q0 -57 -27 -86t-58 -34v-2q31 -4 58 -32.5t27 -89.5v-185q0 -82 61 -82h49v-54h-61q-51 0 -83 31t-32 97v187q0 100 -75 100z" />
    <glyph glyph-name="braceright.alt" horiz-adv-x="310" 
d="M307 324q-75 0 -75 -100v-187q0 -66 -32 -97t-82 -31h-62v54h50q61 0 61 82v185q0 61 27 89.5t59 32.5v2q-32 5 -59 34t-27 86v187q0 82 -61 82h-50v54h62q50 0 82 -31t32 -97v-190q0 -97 75 -97v-58z" />
    <glyph glyph-name="bar.alt" horiz-adv-x="349" 
d="M142 771h65v-1007h-65v1007z" />
    <glyph glyph-name="endash.alt" horiz-adv-x="400" 
d="M370 336h-340v58h340v-58z" />
    <glyph glyph-name="emdash.alt" horiz-adv-x="600" 
d="M570 336h-540v58h540v-58z" />
    <glyph glyph-name="hyphen.alt" horiz-adv-x="314" 
d="M265 334h-216v62h216v-62z" />
    <glyph glyph-name="at.alt" horiz-adv-x="828" 
d="M570 536v-269q0 -30 13 -46.5t34 -16.5q39 0 63.5 57t24.5 131q0 113 -84 198t-207 85q-129 0 -214.5 -95t-85.5 -227q0 -133 85.5 -227t215.5 -94q52 0 104.5 18.5t86.5 47.5l25 -45q-99 -73 -216 -73q-155 0 -257 108.5t-102 264.5q0 157 102.5 265t255.5 108
q148 0 248.5 -99t100.5 -235q0 -35 -8 -73t-24 -75.5t-46 -61.5t-70 -24q-33 0 -58 18t-32 53q-40 -76 -130 -76q-75 0 -120.5 57t-45.5 141q0 83 46 140.5t124 57.5t119 -68h1v55h51zM285 351q0 -62 30 -104t85 -42q57 0 86.5 41.5t29.5 104.5q0 62 -31 104t-85 42
q-55 0 -85 -42t-30 -104z" />
    <glyph glyph-name="ampersand.alt" horiz-adv-x="667" 
d="M618 384q-12 -141 -96 -250l112 -134h-85l-72 85q-97 -97 -215 -97q-91 0 -151.5 54.5t-60.5 143.5q0 72 43 124.5t122 95.5q-40 48 -61 88.5t-21 86.5q0 73 52 114.5t125 41.5q71 0 117 -42t46 -106q0 -115 -163 -202l172 -204q60 94 70 201h66zM269 43q92 0 172 88
l-190 230q-63 -34 -99.5 -73t-36.5 -97q0 -66 44 -107t110 -41zM408 583q0 46 -30.5 74t-71.5 28q-43 0 -76 -28.5t-33 -73.5q0 -66 78 -153q61 32 97 67.5t36 85.5z" />
    <glyph glyph-name="A.alt" horiz-adv-x="697" 
d="M689 0h-86l-76 183h-358l-76 -183h-84l307 708h71zM500 249l-151 374l-153 -374h304z" />
    <glyph glyph-name="Q.alt" horiz-adv-x="856" 
d="M800 355q0 -172 -117 -278l68 -68l-49 -49l-74 74q-92 -53 -200 -53q-161 0 -266 105.5t-105 268.5q0 164 105 268t266 104q162 0 267 -104t105 -268zM718 355q0 128 -81 216.5t-209 88.5t-209 -88.5t-81 -216.5q0 -130 80.5 -217.5t209.5 -87.5q82 0 147 37l-96 98
l47 48l103 -103q89 86 89 225z" />
    <glyph glyph-name="Oslash.alt" horiz-adv-x="856" 
d="M800 355q0 -163 -106 -268.5t-266 -105.5q-113 0 -201 54l-71 -93l-54 37l72 95q-117 107 -117 281q0 164 105 268t266 104q110 0 201 -54l69 90l54 -39l-69 -91q117 -106 117 -278zM138 355q0 -133 82 -220l365 480q-71 45 -157 45q-128 0 -209 -88.5t-81 -216.5z
M718 355q0 130 -82 217l-365 -479q70 -43 157 -43q130 0 210 87.5t80 217.5z" />
    <glyph glyph-name="oslash.alt" horiz-adv-x="609" 
d="M484 413q72 -69 72 -177t-72 -178.5t-180 -70.5q-77 0 -139 40l-60 -73l-43 30l62 74q-70 70 -70 178t71 177.5t179 69.5q77 0 139 -39l56 69l42 -31zM441 358l-236 -279q40 -31 99 -31q81 0 128.5 54.5t47.5 133.5q0 71 -39 122zM403 393q-43 30 -99 30
q-80 0 -128 -54.5t-48 -132.5q0 -70 39 -123z" />
    <glyph glyph-name="hungarumlaut.cap" horiz-adv-x="247" 
d="M352 908l-129 -144h-59l101 144h87zM210 908l-130 -144h-59l101 144h88z" />
    <glyph glyph-name="cedilla.cap" horiz-adv-x="247" 
d="M235 -145q0 -47 -37 -67.5t-85 -20.5q-54 0 -100 22l16 37q37 -17 80 -17q31 0 49 9.5t18 38.5q0 19 -17 28t-40 9q-29 0 -49 -9l-17 19l64 96h41l-50 -74q16 4 35 4q38 0 65 -18t27 -57z" />
    <glyph glyph-name="tilde.cap" horiz-adv-x="247" 
d="M127 859q43 -22 65 -22q34 0 45 46h43q-17 -101 -88 -101q-34 0 -73 22q-40 22 -64 22q-35 0 -44 -48h-44q17 102 88 102q32 0 72 -21z" />
    <glyph glyph-name="ogonek.cap" horiz-adv-x="247" 
d="M188 -148l18 -42q-42 -35 -91 -35q-38 0 -65.5 23.5t-27.5 61.5q0 65 94 144h45q-79 -77 -79 -127q0 -23 13 -35.5t36 -12.5q30 0 57 23z" />
    <glyph glyph-name="ring.cap" horiz-adv-x="247" 
d="M223 852q0 -42 -29 -70t-71 -28q-41 0 -69.5 28t-28.5 69q0 42 28.5 70t69.5 28q42 0 71 -28t29 -69zM182 852q0 24 -17 40t-42 16q-24 0 -40.5 -16t-16.5 -40t17 -40.5t40 -16.5q25 0 42 16.5t17 40.5z" />
    <glyph glyph-name="caron.cap" horiz-adv-x="247" 
d="M165 764h-84l-108 144h70l81 -109l82 109h68z" />
    <glyph glyph-name="macron.cap" horiz-adv-x="247" 
d="M262 804h-277v53h277v-53z" />
    <glyph glyph-name="dieresis.cap" horiz-adv-x="247" 
d="M32 800q-21 0 -35.5 14.5t-14.5 34.5q0 21 14.5 36t35.5 15q22 0 36.5 -15t14.5 -36q0 -20 -15 -34.5t-36 -14.5zM214 800q-21 0 -35.5 14.5t-14.5 34.5q0 21 14.5 36t35.5 15q22 0 36.5 -15t14.5 -36q0 -20 -15 -34.5t-36 -14.5z" />
    <glyph glyph-name="dotaccent.cap" horiz-adv-x="247" 
d="M123 800q-20 0 -35 14.5t-15 34.5q0 21 15 36t35 15q21 0 36 -14.5t15 -36.5q0 -21 -15 -35t-36 -14z" />
    <glyph glyph-name="circumflex.cap" horiz-adv-x="247" 
d="M81 908h84l110 -144h-71l-81 109l-81 -109h-70z" />
    <glyph glyph-name="acute.cap" horiz-adv-x="247" 
d="M257 908l-129 -144h-59l100 144h88z" />
    <glyph glyph-name="grave.cap" horiz-adv-x="247" 
d="M-10 908h88l101 -144h-60z" />
    <glyph glyph-name="breve.cap" horiz-adv-x="247" 
d="M272 905q-7 -65 -47 -99.5t-102 -34.5q-63 0 -103 34.5t-46 99.5h45q7 -40 35.5 -61t68.5 -21q87 0 105 82h44z" />
    <glyph glyph-name="commaaccent.cap" horiz-adv-x="247" 
d="M123 183l70 -2q-38 -91 -68 -173q5 -2 5 -8q0 -8 -7 -8q-33 0 -62 8q11 41 62 183z" />
    <glyph glyph-name="caron.alt" horiz-adv-x="250" 
d="M213 708l-78 -190h-61l65 190h74z" />
    <glyph glyph-name="commaaccent" horiz-adv-x="247" 
d="M107 -239l-39 19q37 67 42 86q-25 16 -25 44q0 20 12.5 33t32.5 13q18 0 31.5 -11.5t13.5 -36.5q0 -46 -68 -147z" />
    <glyph glyph-name="revcommaaccent" horiz-adv-x="247" 
d="M147 726l39 -19q-37 -67 -42 -86q25 -16 25 -44q0 -20 -12.5 -33t-32.5 -13q-18 0 -31.5 11.5t-13.5 36.5q0 46 68 147z" />
    </font>
</defs>
</svg>
